xREL.v3

GoodFellas.Drei.Jahrzehnte.in.der.Mafia.1990.German.DL.2160p.UHD.BluRay.x265.PROPER-ENDSTATiON - Kommentare

Board RSS API Hilfe Kontakt
thcjay
thcjay User 9. Dez 2019, 23:07 Uhr
Keine Bewertung des Benutzers
MediaInfo:

[Spoiler: Zum Lesen hier klicken!]
General
Format : Matroska
Format version : Version 4
File size : 46.5 GiB
Duration : 2 h 25 min
Overall bit rate mode : Variable
Overall bit rate : 45.8 Mb/s
Encoded date : UTC 2018-01-22 18:47:40
Writing application : mkvmerge v17.0.0 ('Be Ur Friend') 64-bit
Writing library : libebml v1.3.5 + libmatroska v1.4.8

Video
ID : 1
Format : HEVC
Format/Info : High Efficiency Video Coding
Format profile : Main 10@L5.1@High
HDR format : SMPTE ST 2086, HDR10 compatible
Codec ID : V_MPEGH/ISO/HEVC
Duration : 2 h 25 min
Bit rate : 41.5 Mb/s
Width : 3 840 pixels
Height : 2 160 pixels
Display aspect ratio : 16:9
Frame rate mode : Constant
Frame rate : 23.976 (24000/1001) FPS
Color space : YUV
Chroma subsampling : 4:2:0 (Type 2)
Bit depth : 10 bits
Bits/(Pixel*Frame) : 0.209
Stream size : 42.2 GiB (91%)
Writing library : x265 2.6+4-f7498acb3874:[Windows][GCC 7.2.0][64 bit] 10bit
Encoding settings : cpuid=1173503 / frame-threads=4 / numa-pools=16 / wpp / no-pmode / no-pme / no-psnr / no-ssim / log-level=2 / input-csp=1 / input-res=3840x2160 / interlace=0 / total-frames=209113 / level-idc=51 / high-tier=1 / uhd-bd=0 / ref=4 / no-allow-non-conformance / repeat-headers / annexb / aud / hrd / info / hash=0 / no-temporal-layers / no-open-gop / min-keyint=24 / keyint=240 / bframes=4 / b-adapt=2 / b-pyramid / bframe-bias=0 / rc-lookahead=25 / lookahead-slices=4 / scenecut=40 / no-intra-refresh / ctu=64 / min-cu-size=8 / rect / no-amp / max-tu-size=32 / tu-inter-depth=1 / tu-intra-depth=1 / limit-tu=0 / rdoq-level=2 / dynamic-rd=0.00 / no-ssim-rd / signhide / no-tskip / nr-intra=0 / nr-inter=0 / no-constrained-intra / no-strong-intra-smoothing / max-merge=3 / limit-refs=3 / limit-modes / me=3 / subme=3 / merange=57 / temporal-mvp / weightp / no-weightb / no-analyze-src-pics / deblock=-3:-3 / no-sao / no-sao-non-deblock / rd=4 / no-early-skip / rskip / no-fast-intra / no-tskip-fast / no-cu-lossless / no-b-intra / no-splitrd-skip / rdpenalty=0 / psy-rd=2.00 / psy-rdoq=1.00 / no-rd-refine / analysis-reuse-mode=0 / no-lossless / cbqpoffs=0 / crqpoffs=0 / rc=crf / crf=17.0 / qcomp=0.60 / qpstep=4 / stats-write=0 / stats-read=0 / vbv-maxrate=160000 / vbv-bufsize=160000 / vbv-init=0.9 / crf-max=0.0 / crf-min=0.0 / ipratio=1.40 / pbratio=1.30 / aq-mode=1 / aq-strength=1.00 / cutree / zone-count=0 / no-strict-cbr / qg-size=32 / no-rc-grain / qpmax=69 / qpmin=0 / no-const-vbv / sar=1 / overscan=0 / videoformat=5 / range=0 / colorprim=9 / transfer=16 / colormatrix=9 / chromaloc=1 / chromaloc-top=2 / chromaloc-bottom=2 / display-window=0 / master-display=G(13250,34500)B(7500,3000)R(34000,16000)WP(15635,16450)L(40000000,50) / max-cll=500,200 / min-luma=0 / max-luma=1023 / log2-max-poc-lsb=8 / vui-timing-info / vui-hrd-info / slices=1 / opt-qp-pps / opt-ref-list-length-pps / no-multi-pass-opt-rps / scenecut-bias=0.05 / no-opt-cu-delta-qp / no-aq-motion / hdr / hdr-opt / no-dhdr10-opt / analysis-reuse-level=5 / scale-factor=0 / refine-intra=0 / refine-inter=0 / refine-mv=0 / no-limit-sao / ctu-info=0 / no-lowpass-dct / refine-mv-type=0 / copy-pic=1
Default : Yes
Forced : No
Color range : Limited
Color primaries : BT.2020
Transfer characteristics : PQ
Matrix coefficients : BT.2020 non-constant
Mastering display color primar : Display P3
Mastering display luminance : min: 0.0050 cd/m2, max: 4000 cd/m2
Maximum Content Light Level : 500 cd/m2
Maximum Frame-Average Light Le : 200 cd/m2

Audio #1
ID : 2
Format : AC-3
Format/Info : Audio Coding 3
Commercial name : Dolby Digital
Codec ID : A_AC3
Duration : 2 h 25 min
Bit rate mode : Constant
Bit rate : 192 kb/s
Channel(s) : 2 channels
Channel layout : L R
Sampling rate : 48.0 kHz
Frame rate : 31.250 FPS (1536 SPF)
Compression mode : Lossy
Stream size : 200 MiB (0%)
Language : German
Service kind : Complete Main
Default : Yes
Forced : No

Audio #2
ID : 3
Format : DTS XLL
Format/Info : Digital Theater Systems
Commercial name : DTS-HD Master Audio
Codec ID : A_DTS
Duration : 2 h 25 min
Bit rate mode : Variable
Bit rate : 4 000 kb/s
Channel(s) : 6 channels
Channel layout : C L R Ls Rs LFE
Sampling rate : 48.0 kHz
Frame rate : 93.750 FPS (512 SPF)
Bit depth : 24 bits
Compression mode : Lossless
Stream size : 4.06 GiB (9%)
Language : English
Default : No
Forced : No

Text #1
ID : 4
Format : UTF-8
Codec ID : S_TEXT/UTF8
Codec ID/Info : UTF-8 Plain Text
Duration : 2 h 24 min
Bit rate : 0 b/s
Count of elements : 26
Stream size : 775 Bytes (0%)
Language : German
Default : Yes
Forced : Yes

Text #2
ID : 5
Format : PGS
Codec ID : S_HDMV/PGS
Codec ID/Info : Picture based subtitle format used on BDs/HD-DVDs
Duration : 2 h 24 min
Bit rate : 438 b/s
Count of elements : 52
Stream size : 464 KiB (0%)
Language : German
Default : No
Forced : No

Text #3
ID : 6
Format : PGS
Codec ID : S_HDMV/PGS
Codec ID/Info : Picture based subtitle format used on BDs/HD-DVDs
Duration : 2 h 24 min
Bit rate : 44.7 kb/s
Count of elements : 4552
Stream size : 46.4 MiB (0%)
Language : German
Default : No
Forced : No

Text #4
ID : 7
Format : PGS
Codec ID : S_HDMV/PGS
Codec ID/Info : Picture based subtitle format used on BDs/HD-DVDs
Duration : 2 h 24 min
Bit rate : 50.9 kb/s
Count of elements : 4388
Stream size : 52.5 MiB (0%)
Language : English
Default : No
Forced : No

Menu
00:00:00.000 : en:00:00:00.000
00:02:43.830 : en:00:02:43.830
00:05:49.516 : en:00:05:49.516
00:07:36.623 : en:00:07:36.623
00:09:08.548 : en:00:09:08.548
00:10:49.023 : en:00:10:49.023
00:13:28.599 : en:00:13:28.599
00:15:01.943 : en:00:15:01.943
00:16:38.581 : en:00:16:38.581
00:19:43.224 : en:00:19:43.224
00:23:46.467 : en:00:23:46.467
00:28:39.843 : en:00:28:39.843
00:31:32.766 : en:00:31:32.766
00:34:36.366 : en:00:34:36.366
00:35:43.558 : en:00:35:43.558
00:37:21.364 : en:00:37:21.364
00:41:27.694 : en:00:41:27.694
00:44:26.414 : en:00:44:26.414
00:48:56.142 : en:00:48:56.142
00:52:04.538 : en:00:52:04.538
00:57:07.507 : en:00:57:07.507
01:01:10.292 : en:01:01:10.292
01:03:46.322 : en:01:03:46.322
01:06:23.313 : en:01:06:23.313
01:07:43.518 : en:01:07:43.518
01:12:32.431 : en:01:12:32.431
01:15:43.289 : en:01:15:43.289
01:18:39.340 : en:01:18:39.340
01:20:02.923 : en:01:20:02.923
01:23:05.439 : en:01:23:05.439
01:25:37.924 : en:01:25:37.924
01:28:14.498 : en:01:28:14.498
01:30:29.758 : en:01:30:29.758
01:33:20.929 : en:01:33:20.929
01:37:52.492 : en:01:37:52.492
01:40:01.913 : en:01:40:01.913
01:42:51.582 : en:01:42:51.582
01:46:34.138 : en:01:46:34.138
01:49:14.256 : en:01:49:14.256
01:53:21.795 : en:01:53:21.795
02:03:56.220 : en:02:03:56.220
02:07:18.840 : en:02:07:18.840
02:09:29.845 : en:02:09:29.845
02:12:01.080 : en:02:12:01.080
02:15:02.219 : en:02:15:02.219
02:18:47.528 : en:02:18:47.528
02:20:33.008 : en:02:20:33.008

0
1


Releasebewertung
Produktbewertung: 8,9 / 10
Gesamt: 38 Stimmen

Release-Optionen

Release-Info
Zeit:
24. Jan 2018, 23:33 Uhr
Release-Group:
Release-Größe:
47634 MB
Nuked:
Nein
Repack oder Proper:
Ja
Read NFO:
Nein
NFO-Größe:
0,57 KB
Video-Stream:
Blu-ray
Audio-Stream:
AC3
Kategorien:

Hast du das verstanden? Ja! | Nein!

Is that clear? Yes! | No!