xREL.v3

The.King.of.Staten.Island.German.DL.720p.x264-EmpireHD - Kommentare

Sprache wählen
Board RSS API Hilfe Kontakt
j0nezzz
j0nezzz AFRiKA.&.P0LiSH♥|✝ 29. Okt 2020, 20:32 Uhr
Keine Bewertung des Benutzers
Selbes Problem wie bei dem FHD-Release. Die Englische Tonspur ist defekt.

MediaInfo

[Spoiler: Zum Lesen hier klicken!]
General
Complete name : M:\Filme\The.King.of.Staten.Island.German.DL.720p.x264-EmpireHD\empire-tkosi-720p.mkv
Format : Matroska
Format version : Version 2
File size : 3.16 GiB
Duration : 2 h 17 min
Overall bit rate : 3 297 kb/s
Writing application : mkvmerge v4.1.1 ('Bouncin' Back') built on Jul 3 2010 22:54:08
Writing library : libebml v1.0.0 + libmatroska v1.0

Video
ID : 1
Format : AVC
Format/Info : Advanced Video Codec
Format profile : High@L4.1
Format settings : CABAC / 5 Ref Frames
Format settings, CABAC : Yes
Format settings, Reference fra : 5 frames
Codec ID : V_MPEG4/ISO/AVC
Duration : 2 h 17 min
Bit rate : 2 143 kb/s
Width : 1 280 pixels
Height : 536 pixels
Display aspect ratio : 2.40:1
Frame rate mode : Constant
Frame rate : 23.976 (24000/1001) FPS
Color space : YUV
Chroma subsampling : 4:2:0
Bit depth : 8 bits
Scan type : Progressive
Bits/(Pixel*Frame) : 0.130
Stream size : 2.05 GiB (65%)
Writing library : x264 core 161 r3018 db0d417
Encoding settings : cabac=1 / ref=5 / deblock=1:-3:-3 / analyse=0x3:0x133 / me=umh / subme=8 / psy=1 / psy_rd=1.00:0.15 / mixed_ref=1 / me_range=16 / chroma_me=1 / trellis=1 / 8x8dct=1 / cqm=0 / deadzone=21,11 / fast_pskip=0 / chroma_qp_offset=-3 / threads=16 / lookahead_threads=2 / sliced_threads=0 / nr=0 / decimate=1 / interlaced=0 / bluray_compat=0 / constrained_intra=0 / bframes=3 / b_pyramid=2 / b_adapt=1 / b_bias=0 / direct=3 / weightb=1 / open_gop=0 / weightp=2 / keyint=240 / keyint_min=23 / scenecut=40 / intra_refresh=0 / rc_lookahead=40 / rc=crf / mbtree=1 / crf=20.0 / qcomp=0.60 / qpmin=10 / qpmax=69 / qpstep=4 / ip_ratio=1.40 / aq=1:1.00
Language : English
Default : Yes
Forced : No

Audio #1
ID : 2
Format : AC-3
Format/Info : Audio Coding 3
Commercial name : Dolby Digital
Codec ID : A_AC3
Duration : 2 h 17 min
Bit rate mode : Constant
Bit rate : 640 kb/s
Channel(s) : 6 channels
Channel layout : L R C LFE Ls Rs
Sampling rate : 48.0 kHz
Frame rate : 31.250 FPS (1536 SPF)
Compression mode : Lossy
Stream size : 628 MiB (19%)
Language : German
Service kind : Complete Main
Default : Yes
Forced : No

Audio #2
ID : 3
Format : AC-3 MLP FBA 16-ch
Format/Info : Audio Coding 3 + Meridian Lossless Packing FBA with 16-channel presentation
Commercial name : Dolby TrueHD with Dolby Atmos
Codec ID : A_AC3
Duration : 2 h 17 min
Bit rate mode : Variable / Constant
Bit rate : 448 kb/s
Maximum bit rate : 6 633 kb/s
Channel(s) : 8 channels / 6 channels
Channel layout : L R C LFE Ls Rs Lb Rb
Sampling rate : 48.0 kHz
Frame rate : 31.250 FPS (1536 SPF)
Compression mode : Lossy
Stream size : 440 MiB (14%)
Language : English
Service kind : Complete Main
Default : No
Forced : No
Number of dynamic objects : 11
Bed channel count : 1 channel
Bed channel configuration : LFE

Menu
00:00:00.000 : en:00:00:00.000
00:07:59.771 : en:00:07:59.771
00:15:21.796 : en:00:15:21.796
00:21:31.665 : en:00:21:31.665
00:30:29.953 : en:00:30:29.953
00:35:49.773 : en:00:35:49.773
00:43:32.276 : en:00:43:32.276
00:51:07.439 : en:00:51:07.439
00:58:17.452 : en:00:58:17.452
01:06:46.669 : en:01:06:46.669
01:11:39.921 : en:01:11:39.921
01:16:35.925 : en:01:16:35.925
01:21:36.934 : en:01:21:36.934
01:29:12.097 : en:01:29:12.097
01:34:21.865 : en:01:34:21.865
01:41:33.296 : en:01:41:33.296
01:46:17.246 : en:01:46:17.246
01:56:30.233 : en:01:56:30.233
02:04:11.027 : en:02:04:11.027
02:11:48.859 : en:02:11:48.859
0
5


Releasebewertung
Produktbewertung: 6,8 / 10
Gesamt: 16 Stimmen

Kommentare
Thema abonniert:
Nein

Release-Optionen

Release-Info
Zeit:
29. Okt 2020, 04:21 Uhr
Release-Group:
Release-Größe:
3237 MB
Nuked:
Nein
Repack oder Proper:
Nein
Read NFO:
Nein
NFO-Größe:
29,87 KB
Video-Stream:
--
Audio-Stream:
AC3
Kategorien:

Hast du das verstanden? Ja! | Nein!

Is that clear? Yes! | No!