xREL.v3

Mile.22.2018.MULTI.COMPLETE.BLURAY-GMB - Kommentare

Board RSS API Hilfe Kontakt
 
dje User 22. Jan 2019, 20:42 Uhr
Keine Bewertung des Benutzers
Info in der NFO scheint falsch zu sein (oder MakeMKV spinnt rum)

DTS-HD 7.1 anstatt nur DTS 5.1 Tonspur für beide Sprachen:

Audio #1
ID                                       : 2
Format                                   : DTS
Format/Info                              : Digital Theater Systems
Format profile                           : MA / Core
Mode                                     : 16
Format settings, Endianness              : Big
Codec ID                                 : A_DTS
Duration                                 : 1 h 35 min
Bit rate mode                            : Variable / Constant
Bit rate                                 : 4 921 kb/s / 1 509 kb/s
Channel(s)                               : 8 channels / 6 channels
Channel positions                        : Front: L C R, Side: L R, Back: L R, LFE / Front: L C R, Side: L R, LFE
Sampling rate                            : 48.0 kHz
Frame rate                               : 93.750 FPS (512 SPF)
Bit depth                                : 24 bits
Compression mode                         : Lossless / Lossy
Stream size                              : 3.27 GiB (13%)
Title                                    : DE DTS-HD 7.1
Language                                 : German
Default                                  : Yes
Forced                                   : No

Audio #2
ID                                       : 3
Format                                   : DTS
Format/Info                              : Digital Theater Systems
Format profile                           : MA / Core
Mode                                     : 16
Format settings, Endianness              : Big
Codec ID                                 : A_DTS
Duration                                 : 1 h 35 min
Bit rate mode                            : Variable / Constant
Bit rate                                 : 4 848 kb/s / 1 509 kb/s
Channel(s)                               : 8 channels / 6 channels
Channel positions                        : Front: L C R, Side: L R, Back: L R, LFE / Front: L C R, Side: L R, LFE
Sampling rate                            : 48.0 kHz
Frame rate                               : 93.750 FPS (512 SPF)
Bit depth                                : 24 bits
Compression mode                         : Lossless / Lossy
Stream size                              : 3.22 GiB (13%)
Title                                    : EN DTS-HD 7.1
Language                                 : English
Default                                  : No
Forced                                   : No

1 mal bearbeitet, zuletzt 22. Jan 2019, 20:43 Uhr
0
8

 
Arkos User 23. Jan 2019, 10:26 Uhr
Keine Bewertung des Benutzers
Falscher IMDB Link.
0
7


Releasebewertung
Produktbewertung: 6,5 / 10
Gesamt: 42 Stimmen

Release-Optionen

Release-Info
Zeit:
22. Jan 2019, 17:33 Uhr
Release-Group:
GMB
Release-Größe:
33751 MB
Nuked:
Nein
Repack oder Proper:
Nein
Read NFO:
Nein
NFO-Größe:
22,63 KB
Video-Stream:
Blu-ray
Audio-Stream:
DTS
Kategorien:

© 2004-2019 by xrelease. Alle Rechte vorbehalten.
Version: 3.4-e7f665f0d9a7ead2defc1e4407a9047204964e93 [20181123-284]
Besucher online: 677
Mitglieder online: 64
P2P-Releases
Entertainment
Nach Oben

Hast du das verstanden? Ja! | Nein!

Is that clear? Yes! | No!