xREL.v3

Preacher.S04E01.GERMAN.DL.720P.WEB.H264.REPACK-WAYNE - Kommentare

Board RSS API Hilfe Kontakt
 
dje User 5. Aug 2019, 10:54 Uhr
Keine Bewertung des Benutzers
Die englische Tonspur ist jetzt zwar vorhanden aber dafür sind beide nur noch 192kbps.

MediaInfo Audio:
[Spoiler: Zum Lesen hier klicken!]
Audio #1
ID                                       : 2
Format                                   : E-AC-3
Format/Info                              : Enhanced Audio Coding 3
Format settings, Endianness              : Big
Codec ID                                 : A_EAC3
Duration                                 : 41 min 29 s
Bit rate mode                            : Constant
Bit rate                                 : 192 kb/s
Channel(s)                               : 6 channels
Channel positions                        : Front: L C R, Side: L R, LFE
Sampling rate                            : 48.0 kHz
Frame rate                               : 187.500 FPS (256 SPF)
Compression mode                         : Lossy
Stream size                              : 57.0 MiB (6%)
Language                                 : German
Service kind                             : Complete Main
Default                                  : Yes
Forced                                   : No

Audio #2
ID                                       : 3
Format                                   : E-AC-3
Format/Info                              : Enhanced Audio Coding 3
Format settings, Endianness              : Big
Codec ID                                 : A_EAC3
Duration                                 : 41 min 29 s
Bit rate mode                            : Constant
Bit rate                                 : 192 kb/s
Channel(s)                               : 6 channels
Channel positions                        : Front: L C R, Side: L R, LFE
Sampling rate                            : 48.0 kHz
Frame rate                               : 187.500 FPS (256 SPF)
Compression mode                         : Lossy
Stream size                              : 57.0 MiB (6%)
Language                                 : English
Service kind                             : Complete Main
Default                                  : No
Forced                                   : No


EDIT: nvm, die sind ja alle nur 192kbps ... oO
2 mal bearbeitet, zuletzt 5. Aug 2019, 11:02 Uhr
1
8


Releasebewertung
Produktbewertung: 8,3 / 10
Gesamt: 22 Stimmen

Release-Optionen

Release-Info
Zeit:
5. Aug 2019, 09:23 Uhr
Release-Group:
Release-Größe:
960 MB
Nuked:
Nein
Repack oder Proper:
Ja
Read NFO:
Nein
NFO-Größe:
0,42 KB
Video-Stream:
Web-Rip
Audio-Stream:
AC3
Kategorien:

© 2004-2019 by xrelease. Alle Rechte vorbehalten.
Version: efed11f15bc1dbdd1b8b9f7282c64f3f603ae159 [20191013-508]
Besucher online: 621
Mitglieder online: 60
P2P-Releases
Entertainment
Nach Oben

Hast du das verstanden? Ja! | Nein!

Is that clear? Yes! | No!