xREL.v3

Doctor.Sleeps.Erwachen.German.DL.LD.720p.WEBRip.x264.iNTERNAL.READ.NFO-PRD - Kommentare

Sprache wählen
Board RSS API Hilfe Kontakt
ca0z
ca0z User 22. Jan 2020, 02:36 Uhr
9.0 / 9.0
Mediainfo:
[Spoiler: Zum Lesen hier klicken!]
G: Matroska, 3.29 GiB, 2 h 32 min, 3 080 kb/s

V: AVC, High@L4.1, 1280x694, 23.976 FPS, 2 374 kb/s

A: German, AC-3, 320 kb/s, 2ch, 48.0 kHz, Default
A: English, AC-3, 384 kb/s, 6ch, 48.0 kHz


General

Unique ID : 246007814669690508093479799455473657292 (0xB91361B5F2CA4D554484181D59C2E5CC)
Complete name : prd-doctorsleepserwachen-720p-web.mkv
Format : Matroska
Format version : Version 4
File size : 3.29 GiB
Duration : 2h 32mn
Overall bit rate : 3080 Kbps
Encoded date : UTC 2020-01-21 18:10:40
Writing application : mkvmerge v31.0.0 ('Dolores In A Shoestand') 64-bit
Writing library : libebml v1.3.6 + libmatroska v1.4.9

Video

ID : 1
Format : AVC
Format/Info : Advanced Video Codec
Format profile : High@L4.1
Format settings : CABAC / 5 Ref Frames
Format settings, CABAC : Yes
Format settings, ref frames : 5 frames
Codec ID : V_MPEG4/ISO/AVC
Duration : 2h 32mn
Bit rate : 2374 Kbps
Width : 1280 pixels
Height : 694 pixels
Display aspect ratio : 1.85:1
Frame rate mode : CFR
Frame rate : 23.976 (24000/1001) fps
Color space : YUV
Chroma subsampling : 4:2:0
Bit depth : 8 bits
Scan type : Progressive
Bits/(Pixel*Frame) : 0.111
Stream size : 2.53 GiB (77%)
Writing library : x264 core 158 r2988 7817004
Encoding settings :

Rate Control
crf=19.0 / qcomp=0.60 / qpmax=69 / qpmin=0
qpstep=4 / rc=crf

Slice Decision
bframes=3 / keyint=250 / ref=5 / scenecut=40

Motion Search
me=umh / subme=10 / weightb=1 / weightp=2

Loop Filter
deblock=1:-3:-3

Other
8x8dct=1 / analyse=0x3:0x133 / aq=3:0.65
b_adapt=2 / b_bias=0 / b_pyramid=2 / bluray_compat=0
cabac=1 / chroma_me=1 / chroma_qp_offset=-3
constrained_intra=0 / cqm=0 / deadzone=21,11
decimate=1 / direct=3 / fast_pskip=0 / interlaced=0
intra_refresh=0 / ip_ratio=1.40 / keyint_min=24
lookahead_threads=1 / mbtree=0 / me_range=16
mixed_ref=1 / nr=0 / open_gop=0 / pb_ratio=1.30
psy_rd=1.05:0.15 / psy=1 / sliced_threads=0
threads=22 / trellis=2

Language : English
Default : Yes
Forced : No

Audio #1

ID : 2
Format : AC-3
Format/Info : Audio Coding 3
Commercial name : Dolby Digital
Codec ID : A_AC3
Duration : 2h 32mn
Bit rate mode : CBR
Bit rate : 320 Kbps
Channel(s) : 2 channels
Channel layout : L R
Sampling rate : 48.0 KHz
Frame rate : 31.250 fps (1536 SPF)
Compression mode : Lossy
Stream size : 350 MiB (10%)
Language : German
Service kind : Complete Main
Default : Yes
Forced : No

Audio #2

ID : 3
Format : AC-3
Format/Info : Audio Coding 3
Commercial name : Dolby Digital
Codec ID : A_AC3
Duration : 2h 32mn
Bit rate mode : CBR
Bit rate : 384 Kbps
Channel(s) : 6 channels
Channel layout : L R C LFE Ls Rs
Sampling rate : 48.0 KHz
Frame rate : 31.250 fps (1536 SPF)
Compression mode : Lossy
Stream size : 420 MiB (12%)
Language : English
Service kind : Complete Main
Default : No
Forced : No



Bild ist manchmal leicht körnig, aber insgesamt trotzdem scharf und sehr gut anzuschauen.
Ton ebenfalls sehr gut, hab's auf Englisch geschaut.
Film hat mir ebenfalls sehr gut gefallen.

Bilder:
http://imgbox.com/g/nu1uh6agKB

0
4


Releasebewertung
Ø Durchschn. Releasebewertung
Gesamt: 1 Stimmen
Bildqualität: 9,0 / 10
Tonqualität: 9,0 / 10
Produktbewertung: 7,6 / 10
Gesamt: 18 Stimmen

Release-Optionen

Release-Info
Zeit:
21. Jan 2020, 19:24 Uhr
Release-Group:
PRD
Release-Größe:
3366 MB
Nuked:
Nein
Repack oder Proper:
Nein
Read NFO:
Ja
NFO-Größe:
15,63 KB
Video-Stream:
Web-Rip
Audio-Stream:
LineDubbed
Kategorien:

Hast du das verstanden? Ja! | Nein!

Is that clear? Yes! | No!