xREL.v3

The.Good.Liar.Das.alte.Boese.2019.German.DL.AC3.Dubbed.1080p.BluRay.x264-PsO - Kommentare

Sprache wählen
Board RSS API Hilfe Kontakt

Kommentar unter Grenzwert - Hier klicken, um ihn anzusehen

Baldrian
Baldrian Top-User 15. Feb 2020, 03:52 Uhr
Keine Bewertung des Benutzers
Naja wozu auch dankbar sein oder zumindest den Aufwand respektieren.

Etwas Riehltork aus der Baldizentrale:

Vielleicht ist das auch bei dir noch nicht angekommen, aber Groups sind euch Konsumenten rein garnichts schuldig, noch habt ihr in irgendeiner Art und Weise etwas zu fordern. Habt ihr das Gefühl, PsO und Co sind eure Vertragspartner die eine Sollmenge an Triple A Titeln euch gegenüber zu erfüllen haben?

Es steht dir ja immerhin frei, die Rauschline Rels von PRD zu glotzen.
2
33

Paint it Black
Paint it Black User 15. Feb 2020, 09:21 Uhr
Keine Bewertung des Benutzers
Al13 schrieb:
...währenddessen wartet die ganze Welt auf Zombieland 2. ...

Naja, eigentlich nur Deutschland (und vielleicht noch Österreich und Schweiz) bzw. nur die, die kein englisch können. xD
2
16

Peter
Peter User 15. Feb 2020, 11:10 Uhr
Keine Bewertung des Benutzers
Du solltest dich auch nicht zwingend bei der Xrel-Bewertung orientieren:

The Good Liar. => IMDB: 6,5/10
Zombieland 2. => IMDB: 6,8/10

Es kommt halt darauf an, in welcher Altersgruppe man sich selbst befindet und wofür man sich interessiert. Ein B-Movie muss nicht zwangsläufig schlechter sein als ein AAA-Movie. Wenn ich mir so die letzten großen AAA-Movies anschaue (also die schlechten Reboots und Fortsetzungen ala 3 Engel für Charlie und Rambo Last Blood) schaue ich persönlich ganz gern auch mal einen unbekannteren Film der es in sich hat. Ich kann zu diesen B-Movie jetzt nichts sagen, aber den Film „Black and Blue“ fand ich überraschend gut und das war ebenfalls ein B-Movie der wie der hier im Kino lief und ich absolut nicht auf dem Schirm hatte.
0
18

 
Sheldor User 15. Feb 2020, 19:34 Uhr
10.0 / 10.0
MediaInfo

[Spoiler: Zum Lesen hier klicken!]
General
Unique ID                                : 250777709743797735373321880111485489833 (0xBCAA07B1E247FCD890716C6F706F12A9)
Complete name                            : M:\Filme\The.Good.Liar.Das.alte.Boese.2019.German.DL.AC3.Dubbed.1080p.BluRay.x264-PsO/pso-tgl-hd-1080p.mkv
Format                                   : Matroska
Format version                           : Version 4
File size                                : 8.13 GiB
Duration                                 : 1 h 49 min
Overall bit rate                         : 10.6 Mb/s
Encoded date                             : UTC 2020-02-14 23:40:11
Writing application                      : mkvmerge v8.3.0 ('Over the Horizon') 64bit
Writing library                          : libebml v1.3.1 + libmatroska v1.4.2

Video
ID                                       : 1
Format                                   : AVC
Format/Info                              : Advanced Video Codec
Format profile                           : High@L4.1
Format settings                          : CABAC / 5 Ref Frames
Format settings, CABAC                   : Yes
Format settings, ReFrames                : 5 frames
Codec ID                                 : V_MPEG4/ISO/AVC
Duration                                 : 1 h 49 min
Bit rate                                 : 8 470 kb/s
Width                                    : 1 920 pixels
Height                                   : 808 pixels
Display aspect ratio                     : 2.40:1
Frame rate mode                          : Constant
Frame rate                               : 23.976 (24000/1001) FPS
Color space                              : YUV
Chroma subsampling                       : 4:2:0
Bit depth                                : 8 bits
Scan type                                : Progressive
Bits/(Pixel*Frame)                       : 0.228
Stream size                              : 6.48 GiB (80%)
Writing library                          : x264 core 157 r2969 d4099dd
Encoding settings                        : cabac=1 / ref=5 / deblock=1:0:0 / analyse=0x3:0x113 / me=umh / subme=8 / psy=1 / psy_rd=1.00:0.00 / mixed_ref=1 / me_range=16 / chroma_me=1 / trellis=1 / 8x8dct=1 / cqm=0 / deadzone=21,11 / fast_pskip=1 / chroma_qp_offset=-2 / threads=16 / lookahead_threads=2 / sliced_threads=0 / nr=0 / decimate=1 / interlaced=0 / bluray_compat=0 / constrained_intra=0 / bframes=3 / b_pyramid=2 / b_adapt=2 / b_bias=0 / direct=3 / weightb=1 / open_gop=0 / weightp=2 / keyint=240 / keyint_min=23 / scenecut=40 / intra_refresh=0 / rc_lookahead=50 / rc=2pass / mbtree=1 / bitrate=8470 / ratetol=1.0 / qcomp=0.60 / qpmin=0 / qpmax=69 / qpstep=4 / cplxblur=20.0 / qblur=0.5 / ip_ratio=1.40 / aq=1:1.00
Default                                  : Yes
Forced                                   : No

Audio #1
ID                                       : 2
Format                                   : AC-3
Format/Info                              : Audio Coding 3
Commercial name                          : Dolby Digital
Codec ID                                 : A_AC3
Duration                                 : 1 h 49 min
Bit rate mode                            : Constant
Bit rate                                 : 640 kb/s
Channel(s)                               : 6 channels
Channel layout                           : L R C LFE Ls Rs
Sampling rate                            : 48.0 kHz
Frame rate                               : 31.250 FPS (1536 SPF)
Bit depth                                : 16 bits
Compression mode                         : Lossy
Delay relative to video                  : 4 s 691 ms
Stream size                              : 501 MiB (6%)
Language                                 : German
Service kind                             : Complete Main
Default                                  : Yes
Forced                                   : Yes

Audio #2
ID                                       : 3
Format                                   : DTS
Format/Info                              : Digital Theater Systems
Codec ID                                 : A_DTS
Duration                                 : 1 h 49 min
Bit rate mode                            : Constant
Bit rate                                 : 1 509 kb/s
Channel(s)                               : 6 channels
Channel layout                           : C L R Ls Rs LFE
Sampling rate                            : 48.0 kHz
Frame rate                               : 93.750 FPS (512 SPF)
Bit depth                                : 24 bits
Compression mode                         : Lossy
Stream size                              : 1.16 GiB (14%)
Language                                 : English
Default                                  : No
Forced                                   : No

Text
ID                                       : 4
Format                                   : UTF-8
Codec ID                                 : S_TEXT/UTF8
Codec ID/Info                            : UTF-8 Plain Text
Duration                                 : 1 h 44 min
Bit rate                                 : 66 b/s
Count of elements                        : 1557
Stream size                              : 50.9 KiB (0%)
Language                                 : German
Default                                  : No
Forced                                   : No

Menu
00:00:00.000                             : :Chapter 01
00:07:26.029                             : :Chapter 02
00:17:30.091                             : :Chapter 03
00:26:54.112                             : :Chapter 04
00:34:31.653                             : :Chapter 05
00:43:15.843                             : :Chapter 06
00:52:14.340                             : :Chapter 07
01:00:50.772                             : :Chapter 08
01:08:18.177                             : :Chapter 09
01:17:54.712                             : :Chapter 10
01:27:05.720                             : :Chapter 11
01:36:41.838                             : :Chapter 12
01:45:10.179                             : :Chapter 13


0
7

amcberlin
amcberlin User 16. Feb 2020, 03:36 Uhr
Keine Bewertung des Benutzers
du musstest ja PsO unbedingt provozieren :D
0
8

Al13
Al13 User 16. Feb 2020, 07:33 Uhr
Keine Bewertung des Benutzers
Bitte bitte gern geschehen :D

7
4


Releasebewertung
Ø Durchschn. Releasebewertung
Gesamt: 2 Stimmen
Bildqualität: 10,0 / 10
Tonqualität: 10,0 / 10
Produktbewertung: 6,8 / 10
Gesamt: 4 Stimmen

Release-Optionen

Release-Info
Zeit:
15. Feb 2020, 01:16 Uhr
Release-Group:
PsO
Release-Größe:
8323 MB
Nuked:
Nein
Repack oder Proper:
Nein
Read NFO:
Nein
NFO-Größe:
29,62 KB
Video-Stream:
Blu-ray
Audio-Stream:
AC3-Dubbed
Kategorien:

Hast du das verstanden? Ja! | Nein!

Is that clear? Yes! | No!