xREL.v3

Gundala.2019.German.DL.1080p.BluRay.x264.RERiP-SAViOUR - Kommentare

Sprache wählen
Board RSS API Hilfe Kontakt
 
armin0815 User 26. Mai 2020, 16:49 Uhr
Keine Bewertung des Benutzers
Immer noch falsch cropped....

3.3) Die Breite des Videos muss ein Vielfaches von 16 sein (mod16). Die Hoehe
des Videos muss ein Vielfaches von 8 sein (mod8).

Mediainfo (Sample):
[Spoiler: Zum Lesen hier klicken!]

General
Unique ID                   : 81699789522180857978721093029756345565 (0x3D76CE9EB38AFE8B64724AA1864B1CDD)
Complete name               : saviour-gundala-1080p-rerip-sample.mkv
Format                      : Matroska
Format version              : Version 4
File size                   : 62.0 MiB
Duration                    : 1 min 0 s
Overall bit rate            : 8 523 kb/s
Movie name                  : saviour-gundala-1080p-rerip-sample
Encoded date                : UTC 2020-05-26 13:39:06
Writing application         : mkvmerge v46.0.0 ('No Deeper Escape') 64-bit
Writing library             : libebml v1.3.10 + libmatroska v1.5.2

Video
ID                          : 1
Format                      : AVC
Format/Info                 : Advanced Video Codec
Format profile              : High@L4.1
Format settings             : CABAC / 4 Ref Frames
Format settings, CABAC      : Yes
Format settings, Reference  : 4 frames
Codec ID                    : V_MPEG4/ISO/AVC
Duration                    : 1 min 0 s
Bit rate                    : 5 502 kb/s
Width                       : 1 920 pixels
Height                      : 804 pixels
Display aspect ratio        : 2.40:1
Frame rate mode             : Constant
Frame rate                  : 23.976 (24000/1001) FPS
Color space                 : YUV
Chroma subsampling          : 4:2:0
Bit depth                   : 8 bits
Scan type                   : Progressive
Bits/(Pixel*Frame)          : 0.149
Stream size                 : 40.0 MiB (65%)
Language                    : Indonesian
Default                     : Yes
Forced                      : Yes

Audio #1
ID                          : 2
Format                      : DTS
Format/Info                 : Digital Theater Systems
Codec ID                    : A_DTS
Duration                    : 1 min 0 s
Bit rate mode               : Constant
Bit rate                    : 1 509 kb/s
Channel(s)                  : 6 channels
Channel layout              : C L R Ls Rs LFE
Sampling rate               : 48.0 kHz
Frame rate                  : 93.750 FPS (512 SPF)
Bit depth                   : 24 bits
Compression mode            : Lossy
Delay relative to video     : 4 ms
Stream size                 : 11.0 MiB (18%)
Title                       : German DTS 5.1
Language                    : German
Default                     : Yes
Forced                      : Yes

Audio #2
ID                          : 3
Format                      : DTS
Format/Info                 : Digital Theater Systems
Codec ID                    : A_DTS
Duration                    : 1 min 0 s
Bit rate mode               : Constant
Bit rate                    : 1 509 kb/s
Channel(s)                  : 6 channels
Channel layout              : C L R Ls Rs LFE
Sampling rate               : 48.0 kHz
Frame rate                  : 93.750 FPS (512 SPF)
Bit depth                   : 24 bits
Compression mode            : Lossy
Delay relative to video     : 4 ms
Stream size                 : 11.0 MiB (18%)
Title                       : Indonesian
Language                    : Indonesian
Default                     : No
Forced                      : No

Text #1
ID                          : 4
Format                      : UTF-8
Codec ID                    : S_TEXT/UTF8
Codec ID/Info               : UTF-8 Plain Text
Bit rate                    : 0 b/s
Count of elements           : 0
Stream size                 : 0.00 Byte (0%)
Title                       : German Forced Subs
Language                    : German
Default                     : Yes
Forced                      : Yes

Text #2
ID                          : 5
Format                      : UTF-8
Codec ID                    : S_TEXT/UTF8
Codec ID/Info               : UTF-8 Plain Text
Duration                    : 46 s 858 ms
Bit rate                    : 23 b/s
Count of elements           : 5
Stream size                 : 138 Bytes (0%)
Title                       : German Full Subs
Language                    : German
Default                     : No
Forced                      : No



0
5

mikesh
mikesh User 28. Mai 2020, 18:09 Uhr
Keine Bewertung des Benutzers
Schwarze Balken sind bis zu dem Frame, der am meisten Bildinformationen enthaelt, wegzucroppen.


Das Resizen von 1080p Releases ist nicht erlaubt. Es muss mod8/16 konform gecroppt werden, ohne zu overcroppen. Ein Undercropping (oder Addborders) wird hierbei gegebenfalls in Kauf genommen.


Willst Du jetzt ehrlich oben und unten je 2 Pixel (Over- or Undercrop) haben? Ist doch ok so das Release.
0
4

 
C.Chris User 28. Mai 2020, 19:49 Uhr
Keine Bewertung des Benutzers
Das Resizen von 1080p Releases ist nicht erlaubt. Es muss mod8/16 konform gecroppt werden, ohne zu overcroppen. Ein Undercropping (oder Addborders) wird hierbei gegebenfalls in Kauf genommen.


Willst Du jetzt ehrlich oben und unten je 2 Pixel (Over- or Undercrop) haben? Ist doch ok so das Release.

Was man will oder nicht, spielt bei Regeln keine Rolle. mod8 heißt, dass die Höhe 808 Pixel hätte sein müssen. Mir persönlich gefällts auch besser, wenn jeder Rand weg ist. Aber nun gut :aww:

EDIT: Gundala.2019.German.DL.1080p.BluRay.x264.REAL.RERiP-SAViOUR
viDEo: 3451 kb/s - 1920x808 (16:9) - x264 :D :D :D
1 mal bearbeitet, zuletzt 28. Mai 2020, 19:59 Uhr
0
5


Releasebewertung
Produktbewertung: 8,0 / 10
Gesamt: 2 Stimmen

Release-Optionen

Release-Info
Zeit:
26. Mai 2020, 16:03 Uhr
Release-Group:
Release-Größe:
5322 MB
Nuked:
Nein
Repack oder Proper:
Ja
Read NFO:
Nein
NFO-Größe:
6,30 KB
Video-Stream:
Blu-ray
Audio-Stream:
DTS
Kategorien:

Hast du das verstanden? Ja! | Nein!

Is that clear? Yes! | No!