xREL.v3

Guns.Akimbo.2019.UNCUT.German.DL.LD.1080p.BluRay.x264-PRD - Kommentare

Sprache wählen
Board RSS API Hilfe Kontakt
 
bashmash User 29. Jun 2020, 15:51 Uhr
Keine Bewertung des Benutzers
incomplete.. scha.de // 720p o. SD schau ich nicht.
Leider keine Bewertung möglich. PRD Standard
0
12

sweeney
sweeney User 29. Jun 2020, 15:56 Uhr
Keine Bewertung des Benutzers
Läuft im AK da kommt ja vermutlich was feines von PsO demnächst
0
13

TESLA
TESLA User 29. Jun 2020, 15:57 Uhr
Keine Bewertung des Benutzers
(incomplete)-NUKED-Guns.Akimbo.2019.UNCUT.German.DL.LD.1080p.BluRay.x264-PRD
0
12

blAde
blAde ( ͡° ͜ʖ ͡°) 29. Jun 2020, 16:01 Uhr
Keine Bewertung des Benutzers
muxxt euch einfach die line vom sd unter das 1080p, wenn ihr nicht warten könnt ;) wird sicherlich im p2p in kürze so gehandhabt (wie immer ^^)

edit: Guns.Akimbo.2019.UNCUT.German.DL.LD.1080p.BluRay.x264-SHOWEHD ^^
2 mal bearbeitet, zuletzt 29. Jun 2020, 16:21 Uhr
0
14

j0nezzz
j0nezzz AFRiKA.&.P0LiSH♥|✝ 29. Jun 2020, 17:05 Uhr
Keine Bewertung des Benutzers
bashmash schrieb:
incomplete.. scha.de // 720p o. SD schau ich nicht.
Leider keine Bewertung möglich. PRD Standard

SD und 720p sind complete.

MediaInfo 720p
[Spoiler: Zum Lesen hier klicken!]
General
Unique ID : 136581936164838539424299992537775936548 (0x66C0B95CCC1DAAA053043A5647E71424)
Complete name : M:\Filme\Guns.Akimbo.2019.UNCUT.German.DL.LD.720p.BluRay.x264-PRD\prd-guns.akimbo-720p-bluray.mkv
Format : Matroska
Format version : Version 4 / Version 2
File size : 5.14 GiB
Duration : 1 h 37 min
Overall bit rate : 7 527 kb/s
Encoded date : UTC 2020-06-29 12:55:43
Writing application : mkvmerge v31.0.0 ('Dolores In A Shoestand') 64-bit
Writing library : libebml v1.3.6 + libmatroska v1.4.9

Video
ID : 1
Format : AVC
Format/Info : Advanced Video Codec
Format profile : High@L4.1
Format settings : CABAC / 8 Ref Frames
Format settings, CABAC : Yes
Format settings, Reference fra : 8 frames
Codec ID : V_MPEG4/ISO/AVC
Duration : 1 h 37 min
Bit rate : 6 565 kb/s
Width : 1 280 pixels
Height : 536 pixels
Display aspect ratio : 2.40:1
Frame rate mode : Constant
Frame rate : 23.976 (24000/1001) FPS
Color space : YUV
Chroma subsampling : 4:2:0
Bit depth : 8 bits
Scan type : Progressive
Bits/(Pixel*Frame) : 0.399
Stream size : 4.49 GiB (87%)
Writing library : x264 core 160 r3000 33f9e14
Encoding settings : cabac=1 / ref=8 / deblock=1:-3:-3 / analyse=0x3:0x133 / me=umh / subme=9 / psy=1 / psy_rd=1.00:0.00 / mixed_ref=1 / me_range=24 / chroma_me=1 / trellis=2 / 8x8dct=1 / cqm=0 / deadzone=21,11 / fast_pskip=0 / chroma_qp_offset=-2 / threads=17 / lookahead_threads=1 / sliced_threads=0 / nr=0 / decimate=1 / interlaced=0 / bluray_compat=0 / constrained_intra=0 / bframes=3 / b_pyramid=2 / b_adapt=2 / b_bias=0 / direct=3 / weightb=1 / open_gop=0 / weightp=2 / keyint=250 / keyint_min=23 / scenecut=40 / intra_refresh=0 / rc=crf / mbtree=0 / crf=15.5 / qcomp=0.60 / qpmin=0 / qpmax=69 / qpstep=4 / ip_ratio=1.40 / pb_ratio=1.30 / aq=3:0.80
Default : Yes
Forced : No
Color range : Limited
Matrix coefficients : BT.709

Audio #1
ID : 2
Format : AC-3
Format/Info : Audio Coding 3
Commercial name : Dolby Digital
Codec ID : A_AC3
Duration : 1 h 37 min
Bit rate mode : Constant
Bit rate : 320 kb/s
Channel(s) : 2 channels
Channel layout : L R
Sampling rate : 48.0 kHz
Frame rate : 31.250 FPS (1536 SPF)
Compression mode : Lossy
Stream size : 224 MiB (4%)
Language : German
Service kind : Complete Main
Default : Yes
Forced : No

Audio #2
ID : 3
Format : AC-3
Format/Info : Audio Coding 3
Commercial name : Dolby Digital
Codec ID : A_AC3
Duration : 1 h 37 min
Bit rate mode : Constant
Bit rate : 640 kb/s
Channel(s) : 6 channels
Channel layout : L R C LFE Ls Rs
Sampling rate : 48.0 kHz
Frame rate : 31.250 FPS (1536 SPF)
Compression mode : Lossy
Stream size : 448 MiB (9%)
Language : English
Service kind : Complete Main
Default : No
Forced : No

Menu
00:00:00.000 : en:Chapter 01
00:04:14.588 : en:Chapter 02
00:12:10.438 : en:Chapter 03
00:18:55.384 : en:Chapter 04
00:23:15.686 : en:Chapter 05
00:30:08.598 : en:Chapter 06
00:34:46.418 : en:Chapter 07
00:42:15.491 : en:Chapter 08
00:47:14.123 : en:Chapter 09
00:52:14.673 : en:Chapter 10
00:55:57.145 : en:Chapter 11
00:58:56.783 : en:Chapter 12
01:04:05.508 : en:Chapter 13
01:10:56.752 : en:Chapter 14
01:17:35.192 : en:Chapter 15
01:29:03.129 : en:Chapter 16


MediaInfo SD
[Spoiler: Zum Lesen hier klicken!]
General
Unique ID : 8976184997594589502214512775272444572 (0x6C0C016C31B96FC87132A58181DB29C)
Complete name : M:\Filme\Guns.Akimbo.2019.UNCUT.German.LD.BDRip.x264-PRD\prd-guns.akimbo-sd-bluray.mkv
Format : Matroska
Format version : Version 4 / Version 2
File size : 817 MiB
Duration : 1 h 37 min
Overall bit rate : 1 167 kb/s
Encoded date : UTC 2020-06-29 12:57:15
Writing application : mkvmerge v31.0.0 ('Dolores In A Shoestand') 64-bit
Writing library : libebml v1.3.6 + libmatroska v1.4.9

Video
ID : 1
Format : AVC
Format/Info : Advanced Video Codec
Format profile : High@L3.1
Format settings : CABAC / 8 Ref Frames
Format settings, CABAC : Yes
Format settings, Reference fra : 8 frames
Codec ID : V_MPEG4/ISO/AVC
Duration : 1 h 37 min
Bit rate : 974 kb/s
Width : 720 pixels
Height : 302 pixels
Display aspect ratio : 2.40:1
Frame rate mode : Constant
Frame rate : 23.976 (24000/1001) FPS
Color space : YUV
Chroma subsampling : 4:2:0
Bit depth : 8 bits
Scan type : Progressive
Bits/(Pixel*Frame) : 0.187
Stream size : 681 MiB (83%)
Writing library : x264 core 160 r3000 33f9e14
Encoding settings : cabac=1 / ref=8 / deblock=1:-3:-3 / analyse=0x3:0x133 / me=umh / subme=9 / psy=1 / psy_rd=1.00:0.00 / mixed_ref=1 / me_range=16 / chroma_me=1 / trellis=2 / 8x8dct=1 / cqm=0 / deadzone=21,11 / fast_pskip=0 / chroma_qp_offset=-2 / threads=9 / lookahead_threads=1 / sliced_threads=0 / nr=0 / decimate=1 / interlaced=0 / bluray_compat=0 / constrained_intra=0 / bframes=3 / b_pyramid=2 / b_adapt=2 / b_bias=0 / direct=3 / weightb=1 / open_gop=0 / weightp=2 / keyint=240 / keyint_min=23 / scenecut=40 / intra_refresh=0 / rc=crf / mbtree=0 / crf=19.0 / qcomp=0.60 / qpmin=0 / qpmax=69 / qpstep=4 / ip_ratio=1.40 / pb_ratio=1.30 / aq=1:1.00
Default : Yes
Forced : No
Color range : Limited
Matrix coefficients : BT.709

Audio
ID : 2
Format : AC-3
Format/Info : Audio Coding 3
Commercial name : Dolby Digital
Codec ID : A_AC3
Duration : 1 h 37 min
Bit rate mode : Constant
Bit rate : 192 kb/s
Channel(s) : 2 channels
Channel layout : L R
Sampling rate : 48.0 kHz
Frame rate : 31.250 FPS (1536 SPF)
Compression mode : Lossy
Stream size : 134 MiB (16%)
Language : German
Service kind : Complete Main
Default : Yes
Forced : No

Menu
00:00:00.000 : en:Chapter 01
00:04:14.588 : en:Chapter 02
00:12:10.438 : en:Chapter 03
00:18:55.384 : en:Chapter 04
00:23:15.686 : en:Chapter 05
00:30:08.598 : en:Chapter 06
00:34:46.418 : en:Chapter 07
00:42:15.491 : en:Chapter 08
00:47:14.123 : en:Chapter 09
00:52:14.673 : en:Chapter 10
00:55:57.145 : en:Chapter 11
00:58:56.783 : en:Chapter 12
01:04:05.508 : en:Chapter 13
01:10:56.752 : en:Chapter 14
01:17:35.192 : en:Chapter 15
01:29:03.129 : en:Chapter 16
0
8

 
f2e4k M0ViE fREAk 29. Jun 2020, 17:25 Uhr
10.0 / 10.0
Jetzt complete verfügbar! ;)
MediaInfo 1080p
[Spoiler: Zum Lesen hier klicken!]
General
Unique ID : 15912658759524492762175011459996460828 (0xBF8AAA64BD2C57C3A2D63A8DFDE271C)
Complete name : I:\Filme\Guns.Akimbo.2019.UNCUT.German.DL.LD.1080p.BluRay.x264-PRD\prd-guns.akimbo-1080p-bluray.mkv
Format : Matroska
Format version : Version 4
File size : 9.92 GiB
Duration : 1 h 37 min
Overall bit rate : 14.5 Mb/s
Encoded date : UTC 2020-06-29 12:49:20
Writing application : mkvmerge v31.0.0 ('Dolores In A Shoestand') 64-bit
Writing library : libebml v1.3.6 + libmatroska v1.4.9

Video
ID : 1
Format : AVC
Format/Info : Advanced Video Codec
Format profile : High@L4.1
Format settings : CABAC / 5 Ref Frames
Format settings, CABAC : Yes
Format settings, Reference frames : 5 frames
Codec ID : V_MPEG4/ISO/AVC
Duration : 1 h 37 min
Bit rate : 13.6 Mb/s
Width : 1 920 pixels
Height : 804 pixels
Display aspect ratio : 2.40:1
Frame rate mode : Constant
Frame rate : 23.976 (24000/1001) FPS
Color space : YUV
Chroma subsampling : 4:2:0
Bit depth : 8 bits
Scan type : Progressive
Bits/(Pixel*Frame) : 0.366
Stream size : 9.27 GiB (93%)
Writing library : x264 core 160 r3000 33f9e14
Encoding settings : cabac=1 / ref=5 / deblock=1:-3:-3 / analyse=0x3:0x133 / me=umh / subme=9 / psy=1 / psy_rd=1.00:0.00 / mixed_ref=1 / me_range=32 / chroma_me=1 / trellis=2 / 8x8dct=1 / cqm=0 / deadzone=21,11 / fast_pskip=0 / chroma_qp_offset=-2 / threads=24 / lookahead_threads=2 / sliced_threads=0 / nr=0 / decimate=1 / interlaced=0 / bluray_compat=0 / constrained_intra=0 / bframes=3 / b_pyramid=2 / b_adapt=2 / b_bias=0 / direct=3 / weightb=1 / open_gop=0 / weightp=2 / keyint=250 / keyint_min=23 / scenecut=40 / intra_refresh=0 / rc=crf / mbtree=0 / crf=16.8 / qcomp=0.60 / qpmin=0 / qpmax=69 / qpstep=4 / ip_ratio=1.40 / pb_ratio=1.30 / aq=3:0.80
Default : Yes
Forced : No
Color range : Limited
Matrix coefficients : BT.709

Audio #1
ID : 2
Format : AC-3
Format/Info : Audio Coding 3
Commercial name : Dolby Digital
Codec ID : A_AC3
Duration : 1 h 37 min
Bit rate mode : Constant
Bit rate : 320 kb/s
Channel(s) : 2 channels
Channel layout : L R
Sampling rate : 48.0 kHz
Frame rate : 31.250 FPS (1536 SPF)
Compression mode : Lossy
Stream size : 224 MiB (2%)
Language : German
Service kind : Complete Main
Default : Yes
Forced : No

Audio #2
ID : 3
Format : AC-3
Format/Info : Audio Coding 3
Commercial name : Dolby Digital
Codec ID : A_AC3
Duration : 1 h 37 min
Bit rate mode : Constant
Bit rate : 640 kb/s
Channel(s) : 6 channels
Channel layout : L R C LFE Ls Rs
Sampling rate : 48.0 kHz
Frame rate : 31.250 FPS (1536 SPF)
Compression mode : Lossy
Stream size : 448 MiB (4%)
Language : English
Service kind : Complete Main
Default : No
Forced : No

Menu
00:00:00.000 : en:Chapter 01
00:04:14.588 : en:Chapter 02
00:12:10.438 : en:Chapter 03
00:18:55.384 : en:Chapter 04
00:23:15.686 : en:Chapter 05
00:30:08.598 : en:Chapter 06
00:34:46.418 : en:Chapter 07
00:42:15.491 : en:Chapter 08
00:47:14.123 : en:Chapter 09
00:52:14.673 : en:Chapter 10
00:55:57.145 : en:Chapter 11
00:58:56.783 : en:Chapter 12
01:04:05.508 : en:Chapter 13
01:10:56.752 : en:Chapter 14
01:17:35.192 : en:Chapter 15
01:29:03.129 : en:Chapter 16



Bild ist super!

Die Line klingt auch super, hab beim durchzappen auch keinerlei Störgeräusche o.ä. gefunden.


Es gibt einige Texteinblendungen auf Englisch (Chats usw.), hier gibt's zwar keine extra Deutschen Untertitel, das Eingeblendete wird aber meistens auch vor-/mitgelesen. ;)

Edit:
Das Release ist leider nicht ganz synchron, ab 1:25:50 wirds leider etwas async (der Ton kommt immer etwas zu früh), das wird leider in den nächsten Dialogen ziemlich deutlich:
Über 1 Sekunde Versatz. :o
Dann wiederholt sich ein Stück des Tones wodurch das ganze dann genau andersrum ist also der Ton kommt dann plötzlich viel zu spät, ca. 2,5 Sekunden! :~
Bei 1:28:15 hört man dann einen Satz doppelt, zuerst auf Deutsch, dann nochmal auf Englisch, ab da scheint es dann aber endlich wieder zu passen.

Da muß also unbedingt ein REPACK her!!!

Edit2:
Interessant wäre noch, ob das bei der SD und 720p genauso ist, vielleicht kann das ja mal jemand checken! 8-)
3 mal bearbeitet, zuletzt 30. Jun 2020, 17:10 Uhr
1
14

bordellmaster007
bordellmaster007 User 29. Jun 2020, 18:13 Uhr
Keine Bewertung des Benutzers
die einblendungen sind auch nicht im kino auf deutsch...
0
12

Turnschuh
Turnschuh User 30. Jun 2020, 18:48 Uhr
Keine Bewertung des Benutzers
Edit
Interessant wäre noch, ob das bei der SD und 720p genauso ist, vielleicht kann das ja mal jemand checken! 8-)[/quote]

Beim 720 ist es leider genau so. Wollte auch schon eine Bewertung schreiben, fand es bloß mit dem formulieren schwierig und habe es daher gelassen.
0
7

 
f2e4k M0ViE fREAk 3. Jul 2020, 20:34 Uhr
10.0 / 10.0
Guns.Akimbo.2019.UNCUT.German.DL.LD.BluRay.x264.SYNCFiX-PRD
nfo schrieb:
Notes : AUDiO iSSUE FiXED
SD/720P/1080P

Edit:
Der Fix funktioniert hier bei der 1080p perfekt, die beigelegte (neue) AC3 ist zu 100% synchron, es gibt an der genannten Stelle bis zum Ende keine Fehler/Probleme mehr. ;)
1 mal bearbeitet, zuletzt 5. Jul 2020, 17:20 Uhr
0
4

xx-astrix-xx
xx-astrix-xx User 5. Jul 2020, 11:19 Uhr
Keine Bewertung des Benutzers
Ist denn das Release sync oder hat schowhd die line einfach drauf geklatscht

Guns.Akimbo.2019.UNCUT.German.DL.LD.1080p.BluRay.x264-SHOWEHD
1
4

blAde
blAde ( ͡° ͜ʖ ͡°) 5. Jul 2020, 11:47 Uhr
Keine Bewertung des Benutzers
xx-astrix-xx schrieb:
Ist denn das Release sync oder hat schowhd die line einfach drauf geklatscht

Guns.Akimbo.2019.UNCUT.German.DL.LD.1080p.BluRay.x264-SHOWEHD


Das war auch async, ist aber für die Szenen und den paar min vertretbar gewesen
1 mal bearbeitet, zuletzt 5. Jul 2020, 11:51 Uhr
0
7


Releasebewertung
Ø Durchschn. Releasebewertung
Gesamt: 1 Stimmen
Bildqualität: 10,0 / 10
Tonqualität: 10,0 / 10
Produktbewertung: 6,4 / 10
Gesamt: 25 Stimmen

Release-Optionen

Release-Info
Zeit:
29. Jun 2020, 15:17 Uhr
Release-Group:
PRD
Release-Größe:
10162 MB
Nuked:
Nuked Ja
Repack oder Proper:
Nein
Read NFO:
Nein
NFO-Größe:
15,28 KB
Video-Stream:
Blu-ray
Audio-Stream:
LineDubbed
Kategorien:

Hast du das verstanden? Ja! | Nein!

Is that clear? Yes! | No!