xREL.v3

Hercules.2014.2160p.WEB.H265-PETRiFiED - Kommentare

Sprache wählen
Board RSS API Hilfe Kontakt
StoneDevil
StoneDevil User 13. Jul 2020, 10:48 Uhr
Keine Bewertung des Benutzers
Mediainfo:
[Spoiler: Zum Lesen hier klicken!]

General
Unique ID : 0 (0x0)
Format : Matroska
Format version : Version 4
File size : 10.5 GiB
Duration : 1 h 38 min
Overall bit rate : 15.3 Mb/s
Encoded date : UTC 2010-02-22 21:41:29
Writing application : no_variable_data
Writing library : no_variable_data

Video
ID : 1
Format : HEVC
Format/Info : High Efficiency Video Coding
Format profile : Main 10@L5.1@Main
Codec ID : V_MPEGH/ISO/HEVC
Duration : 1 h 38 min
Bit rate : 14.6 Mb/s
Width : 3 840 pixels
Height : 2 160 pixels
Display aspect ratio : 16:9
Frame rate mode : Constant
Frame rate : 23.976 (23976/1000) FPS
Color space : YUV
Chroma subsampling : 4:2:0
Bit depth : 10 bits
Bits/(Pixel*Frame) : 0.073
Stream size : 9.99 GiB (95%)
Language : English
Default : Yes
Forced : No
Color range : Limited
Color primaries : BT.709
Transfer characteristics : BT.709
Matrix coefficients : BT.709
Statistics Tags Issue : no_variable_data 1970-01-01 00:00:00 / no_variable_data 2010-02-22 21:41:29
FromStats_BitRate : 14882018
FromStats_Duration : 01:38:05.880000000
FromStats_FrameCount : 141120
FromStats_StreamSize : 10949221779
Duration_Source : General_Duration

Audio
ID : 2
Format : AC-3
Format/Info : Audio Coding 3
Commercial name : Dolby Digital
Codec ID : A_AC3
Duration : 1 h 38 min
Bit rate mode : Constant
Bit rate : 448 kb/s
Channel(s) : 6 channels
Channel layout : L R C LFE Ls Rs
Sampling rate : 48.0 kHz
Frame rate : 31.250 FPS (1536 SPF)
Compression mode : Lossy
Stream size : 314 MiB (3%)
Language : English
Service kind : Complete Main
Default : Yes
Forced : No
Statistics Tags Issue : no_variable_data 1970-01-01 00:00:00 / no_variable_data 2010-02-22 21:41:29
FromStats_BitRate : 448000
FromStats_Duration : 01:38:04.000000000
FromStats_FrameCount : 183875
FromStats_StreamSize : 329504000
Duration_Source : General_Duration

Text
ID : 3
Format : UTF-8
Codec ID : S_TEXT/UTF8
Codec ID/Info : UTF-8 Plain Text
Title : English (SDH)
Language : English
Default : No
Forced : No
Statistics Tags Issue : no_variable_data 1970-01-01 00:00:00 / no_variable_data 2010-02-22 21:41:29
FromStats_BitRate : 52
FromStats_Duration : 01:30:12.728000000
FromStats_FrameCount : 1223
FromStats_StreamSize : 35473
1
5


Releasebewertung
Produktbewertung: 6,6 / 10
Gesamt: 64 Stimmen

Release-Optionen

Release-Info
Zeit:
13. Jul 2020, 07:11 Uhr
Release-Group:
Release-Größe:
10758 MB
Nuked:
Nein
Repack oder Proper:
Nein
Read NFO:
Nein
NFO-Größe:
0,05 KB
Video-Stream:
Web-Rip
Audio-Stream:
AC3
Kategorien:

Hast du das verstanden? Ja! | Nein!

Is that clear? Yes! | No!