xREL.v3

The.Hater.2020.German.EAC3D.DL.1080p.BluRay.x264-CLASSiCALHD - Kommentare

Sprache wählen
Board RSS API Hilfe Kontakt
 
qwertz1 Archiv NFO Poster 8. Aug 2020, 12:09 Uhr
Keine Bewertung des Benutzers
Glaube das müsste unter HDTV Kategorisiert werden. ;)

720p auch....
0
7

 
f2e4k M0ViE fREAk 15. Aug 2020, 11:19 Uhr
Keine Bewertung des Benutzers
qwertz1 schrieb:
Glaube das müsste unter HDTV Kategorisiert werden. ;)

720p auch....

Dem Proof zufolge auf jedenfall. :HAA:
0
3

 
Plutonium User 15. Aug 2020, 15:30 Uhr
Keine Bewertung des Benutzers
In dem Release fehlen Deutsche Forced Subs. Das ist besonders schlecht, weil z.B. in dem Film öfters auf Polnisch Texte geschrieben/gelesen werden.
z.b. 51:23 zaprasza

Folgendes Subs sind dabei:

Text #1
ID                                       : 4
Format                                   : UTF-8
Codec ID                                 : S_TEXT/UTF8
Codec ID/Info                            : UTF-8 Plain Text
Duration                                 : 2 h 4 min
Bit rate                                 : 51 b/s
Count of elements                        : 1495
Stream size                              : 47.6 KiB (0%)
Title                                    : English
Language                                 : English
Default                                  : No
Forced                                   : No

Text #2
ID                                       : 5
Format                                   : PGS
Codec ID                                 : S_HDMV/PGS
Codec ID/Info                            : Picture based subtitle format used on BDs/HD-DVDs
Duration                                 : 2 h 4 min
Bit rate                                 : 30.2 kb/s
Count of elements                        : 2990
Stream size                              : 27.0 MiB (0%)
Title                                    : English
Language                                 : English
Default                                  : No
Forced                                   : No

Text #3
ID                                       : 6
Format                                   : PGS
Codec ID                                 : S_HDMV/PGS
Codec ID/Info                            : Picture based subtitle format used on BDs/HD-DVDs
Duration                                 : 50 min 36 s
Bit rate                                 : 447 b/s
Count of elements                        : 26
Stream size                              : 166 KiB (0%)
Title                                    : Polish Forced
Language                                 : Polish
Default                                  : No
Forced                                   : No

Text #4
ID                                       : 7
Format                                   : PGS
Codec ID                                 : S_HDMV/PGS
Codec ID/Info                            : Picture based subtitle format used on BDs/HD-DVDs
Duration                                 : 2 h 7 min
Bit rate                                 : 30.6 kb/s
Count of elements                        : 2718
Stream size                              : 28.0 MiB (0%)
Title                                    : Polish SDH
Language                                 : Polish
Default                                  : No
Forced                                   : No
0
5

STADTAWE
STADTAWE User 15. Aug 2020, 16:58 Uhr
Keine Bewertung des Benutzers
f2e4k schrieb:
Dem Proof zufolge auf jedenfall. :HAA:


Habe ich mal eingetragen, damit die Leute auch mitreden können ;)
0
6

 
Sl4te 15. Aug 2020, 17:34 Uhr
Keine Bewertung des Benutzers
Als ob ich es hier nicht schon geahnt hätte:
https://www.xrel.to/comments/2159905/Transformers-War-for-Cybertron-S01E01-GERMAN-DL-1080p-WEB-x264-NFLX.html#cpost396369

Ich kann nur hoffen, dass das Tool wenigstens die unverschlüsselten Audiospuren nicht mehr anfasst und untouched belässt.

Das wirft dann natürlich auch direkt die Frage auf, woher eigentlich die WEB-Quellen stammen, mit denen diese Group oft Dubbed. Für viele Releases gibt es nämlich maximal im P2P untouched 1080p Quellen, die man hätte dubben können. Hat man sich hier etwa doch beim bösen P2P bedient? Oder womöglich sind es gar keine untouched WEB-DLs?

Sowas als Proof rauszuhauen ist wirklich eine ziemlich peinliche Aktion. So oder so wirft es in der Summe mal wieder ein eher schlechtes Licht auf die deutsche Scene.
4
5

amcberlin
amcberlin User 15. Aug 2020, 18:17 Uhr
Keine Bewertung des Benutzers
es gibt keine forced untertitel auf Netflix zu diesem film sondern nur Fullsubs, siehe Wayne
[Spoiler: Zum Lesen hier klicken!]
RELEASE    : The.Hater.2020.GERMAN.DL.1080P.WEB.X264-WAYNE

DATE       : 29.07.2020

SOURCE     : WEB

FORMAT     : X264

RUNTIME    : 2 h 16 min

RESOLUTION : 1920x1080

BITRATE    : 2 610 kb/s

AUDIO      : German EAC3 6 Channels 640 kb/s

AUDIO      : English EAC3 6 Channels 640 kb/s

SUBTITLE   : Czech 

SUBTITLE   : Danish 

SUBTITLE   : German 

SUBTITLE   : Greek 

SUBTITLE   : English 

SUBTITLE   : Spanish 

SUBTITLE   : Spanish 

SUBTITLE   : Finnish 

SUBTITLE   : French 

SUBTITLE   : Croatian 

SUBTITLE   : Hungarian 

SUBTITLE   : Indonesian 

SUBTITLE   : Italian 

SUBTITLE   : Malayalam 

SUBTITLE   : Norwegian 

SUBTITLE   : Dutch 

SUBTITLE   : Polish 

SUBTITLE   : Portuguese 

SUBTITLE   : Portuguese 

SUBTITLE   : Russian 

SUBTITLE   : Swedish 

SUBTITLE   : Turkish 

SUBTITLE   : Polish 

URL        : https://www.imdb.com/title/tt9506474

NOTES      : Untouched


2x polnisch : 1 mal full und cc

danke für den time stamp ;)

1 mal bearbeitet, zuletzt 15. Aug 2020, 18:18 Uhr
0
6

Baldrian
Baldrian Top-User 16. Aug 2020, 06:27 Uhr
Keine Bewertung des Benutzers
Sl4te schrieb:
So oder so wirft es in der Summe mal wieder ein eher schlechtes Licht auf die deutsche Scene.
Wo sind denn jetzt eigentlich deine krassen P2P Groups nach denen du gefragt wurdest? Und was hat dieses Release eigentlich mit deinem Craptool zu tun?
2 mal bearbeitet, zuletzt 16. Aug 2020, 06:29 Uhr
2
4


Release-Optionen

Release-Info
Zeit:
8. Aug 2020, 03:03 Uhr
Release-Group:
Release-Größe:
11492 MB
Nuked:
Nein
Repack oder Proper:
Nein
Read NFO:
Nein
NFO-Größe:
11,26 KB
Video-Stream:
Blu-ray
Audio-Stream:
DTS
Kategorien:

Hast du das verstanden? Ja! | Nein!

Is that clear? Yes! | No!