xREL.v3

Teheran.S01E03.German.DL.720p.WEB.h264-WvF - Kommentare

Sprache wählen
Board RSS API Hilfe Kontakt
 
Freek User 26. Sep 2020, 23:02 Uhr
Keine Bewertung des Benutzers
German?

Sind nur Deutsche UT's drin.
0
6

 
armin0815 User 26. Sep 2020, 23:59 Uhr
Keine Bewertung des Benutzers
Es wurden bei der Serie nur sehr wenige Stellen deutsch synchronisiert...
Rest wurde in der Orginalsprache (Persian | Hebrew | English) gelassen mit deutschen forced subs.
Mediainfo:
[Spoiler: Zum Lesen hier klicken!]

General
Unique ID                                : 55088988139712993967206436311867662407 (0x2971C0D0D35E45582256D7C5F2F92047)
Complete name                            : teheran.s01e03.german.dl.720p.web.h264-wvf.mkv
Format                                   : Matroska
Format version                           : Version 4
File size                                : 1.46 GiB
Duration                                 : 47 min 26 s
Overall bit rate                         : 4 393 kb/s
Encoded date                             : UTC 2020-09-25 06:57:57
Writing application                      : mkvmerge v48.0.0 ('Fortress Around Your Heart') 64-bit
Writing library                          : libebml v1.4.0 + libmatroska v1.6.0

Video
ID                                       : 1
Format                                   : AVC
Format/Info                              : Advanced Video Codec
Format profile                           : High@L3.2
Format settings                          : CABAC / 5 Ref Frames
Format settings, CABAC                   : Yes
Format settings, Reference frames        : 5 frames
Codec ID                                 : V_MPEG4/ISO/AVC
Duration                                 : 47 min 26 s
Bit rate                                 : 2 854 kb/s
Width                                    : 1 480 pixels
Height                                   : 620 pixels
Display aspect ratio                     : 2.40:1
Frame rate mode                          : Constant
Frame rate                               : 23.976 (24000/1001) FPS
Color space                              : YUV
Chroma subsampling                       : 4:2:0
Bit depth                                : 8 bits
Scan type                                : Progressive
Bits/(Pixel*Frame)                       : 0.130
Stream size                              : 968 MiB (65%)
Default                                  : Yes
Forced                                   : No
Color range                              : Limited
Color primaries                          : BT.709
Transfer characteristics                 : BT.709
Matrix coefficients                      : BT.709

Audio #1
ID                                       : 2
Format                                   : E-AC-3 JOC
Format/Info                              : Enhanced AC-3 with Joint Object Coding
Commercial name                          : Dolby Digital Plus with Dolby Atmos
Codec ID                                 : A_EAC3
Duration                                 : 47 min 26 s
Bit rate mode                            : Constant
Bit rate                                 : 768 kb/s
Channel(s)                               : 6 channels
Channel layout                           : L R C LFE Ls Rs
Sampling rate                            : 48.0 kHz
Frame rate                               : 31.250 FPS (1536 SPF)
Compression mode                         : Lossy
Stream size                              : 261 MiB (17%)
Language                                 : German
Service kind                             : Complete Main
Default                                  : Yes
Forced                                   : No
Complexity index                         : 16
Number of dynamic objects                : 15
Bed channel count                        : 1 channel
Bed channel configuration                : LFE

Audio #2
ID                                       : 3
Format                                   : E-AC-3 JOC
Format/Info                              : Enhanced AC-3 with Joint Object Coding
Commercial name                          : Dolby Digital Plus with Dolby Atmos
Codec ID                                 : A_EAC3
Duration                                 : 47 min 26 s
Bit rate mode                            : Constant
Bit rate                                 : 768 kb/s
Channel(s)                               : 6 channels
Channel layout                           : L R C LFE Ls Rs
Sampling rate                            : 48.0 kHz
Frame rate                               : 31.250 FPS (1536 SPF)
Compression mode                         : Lossy
Stream size                              : 261 MiB (17%)
Language                                 : Hebrew
Service kind                             : Complete Main
Default                                  : No
Forced                                   : No
Complexity index                         : 16
Number of dynamic objects                : 15
Bed channel count                        : 1 channel
Bed channel configuration                : LFE

Text #1
ID                                       : 4
Format                                   : UTF-8
Codec ID                                 : S_TEXT/UTF8
Codec ID/Info                            : UTF-8 Plain Text
Duration                                 : 45 min 43 s
Bit rate                                 : 45 b/s
Count of elements                        : 557
Stream size                              : 15.4 KiB (0%)
Title                                    : German_Forced
Language                                 : German
Default                                  : Yes
Forced                                   : Yes

Text #2
ID                                       : 5
Format                                   : UTF-8
Codec ID                                 : S_TEXT/UTF8
Codec ID/Info                            : UTF-8 Plain Text
Duration                                 : 46 min 1 s
Bit rate                                 : 50 b/s
Count of elements                        : 615
Stream size                              : 17.1 KiB (0%)
Title                                    : German_Full
Language                                 : German
Default                                  : No
Forced                                   : No

Text #3
ID                                       : 6
Format                                   : UTF-8
Codec ID                                 : S_TEXT/UTF8
Codec ID/Info                            : UTF-8 Plain Text
Duration                                 : 44 min 48 s
Bit rate                                 : 43 b/s
Count of elements                        : 500
Stream size                              : 14.4 KiB (0%)
Title                                    : Hebrew_Forced
Language                                 : Hebrew
Default                                  : No
Forced                                   : No

Text #4
ID                                       : 7
Format                                   : UTF-8
Codec ID                                 : S_TEXT/UTF8
Codec ID/Info                            : UTF-8 Plain Text
Duration                                 : 46 min 45 s
Bit rate                                 : 65 b/s
Count of elements                        : 580
Stream size                              : 22.5 KiB (0%)
Title                                    : Hebrew_Full
Language                                 : Hebrew
Default                                  : No
Forced                                   : No

0
8

 
Freek User 27. Sep 2020, 00:08 Uhr
Keine Bewertung des Benutzers
Danke für die Info.
0
4

KryptoKlaus
KryptoKlaus User 6. Okt 2020, 10:55 Uhr
Keine Bewertung des Benutzers
Interessant, dass hier deutsche UT verfügbar sind - gestern aber auf der original Plattform (Apple TV+) nicht verfügbar waren.
Wie will man da noch das offizielle Angebot bewerben ... meine Herrn ... *kopfschüttel*
PS. Alle anderen Folgen hatten bisher deutsche UT.
0
3


Releasebewertung
Produktbewertung: 10,0 / 10
Gesamt: 1 Stimmen

Release-Optionen

Release-Info
Zeit:
25. Sep 2020, 23:21 Uhr
Release-Group:
WvF
Release-Größe:
1490 MB
Nuked:
Nein
Repack oder Proper:
Nein
Read NFO:
Nein
NFO-Größe:
0,92 KB
Video-Stream:
Web-Rip
Audio-Stream:
AC3
Kategorien:

Hast du das verstanden? Ja! | Nein!

Is that clear? Yes! | No!