xREL.v3

AK.47.Kalaschnikow.2020.German.720p.BluRay.x264-ROCKEFELLER - Kommentare

Sprache wählen
Board RSS API Hilfe Kontakt
 
qwertz1 Archiv NFO Poster 16. Okt 2020, 15:54 Uhr
Keine Bewertung des Benutzers
Nfo Angabe der Auflösung stimmt nicht hier.... :o
0
6

STADTAWE
STADTAWE User 16. Okt 2020, 18:00 Uhr
Keine Bewertung des Benutzers
MediaInfo:
[Spoiler: Zum Lesen hier klicken!]
General
Format : Matroska
Format version : Version 2
File size : 2.76 GiB
Duration : 1h 35mn
Overall bit rate : 4 139 Kbps
Writing application : mkvmerge v6.6.0 ('The Edge Of The In Between') built on Dec 1 2013 17:55:00
Writing library : libebml v1.3.0 + libmatroska v1.4.1

Video
ID : 1
Format : AVC
Format/Info : Advanced Video Codec
Format profile : High@L4.1
Format settings, CABAC : Yes
Format settings, ReFrames : 5 frames
Codec ID : V_MPEG4/ISO/AVC
Duration : 1h 35mn
Bit rate : 2 548 Kbps
Width : 1 280 pixels
Height : 568 pixels
Display aspect ratio : 2.25:1
Frame rate mode : Constant
Frame rate : 24.000 fps
Color space : YUV
Chroma subsampling : 4:2:0
Bit depth : 8 bits
Scan type : Progressive
Bits/(Pixel*Frame) : 0.146
Stream size : 1.70 GiB (62%)
Writing library : x264 core 161 r3018 db0d417
Encoding settings : cabac=1 / ref=5 / deblock=1:-3:-3 / analyse=0x3:0x133 / me=umh / subme=8 / psy=1 / psy_rd=1.00:0.00 / mixed_ref=1 / me_range=16 / chroma_me=1 / trellis=2 / 8x8dct=1 / cqm=0 / deadzone=21,11 / fast_pskip=0 / chroma_qp_offset=-2 / threads=12 / lookahead_threads=2 / sliced_threads=0 / nr=0 / decimate=1 / interlaced=0 / bluray_compat=0 / constrained_intra=0 / bframes=3 / b_pyramid=2 / b_adapt=1 / b_bias=0 / direct=3 / weightb=1 / open_gop=0 / weightp=2 / keyint=250 / keyint_min=24 / scenecut=40 / intra_refresh=0 / rc_lookahead=50 / rc=crf / mbtree=1 / crf=20.0 / qcomp=0.60 / qpmin=0 / qpmax=69 / qpstep=4 / ip_ratio=1.40 / aq=1:1.00
Language : English
Default : Yes
Forced : No

Audio
ID : 2
Format : DTS
Format/Info : Digital Theater Systems
Mode : 16
Format settings, Endianness : Big
Codec ID : A_DTS
Duration : 1h 35mn
Bit rate mode : Constant
Bit rate : 1 509 Kbps
Channel(s) : 6 channels
Channel positions : Front: L C R, Side: L R, LFE
Sampling rate : 48.0 KHz
Frame rate : 93.750 fps (512 spf)
Bit depth : 24 bits
Compression mode : Lossy
Stream size : 1.01 GiB (36%)
Language : German
Default : Yes
Forced : No

Text
ID : 3
Format : UTF-8
Codec ID : S_TEXT/UTF8
Codec ID/Info : UTF-8 Plain Text
Language : German
Default : Yes
Forced : Yes

Menu
00:00:00.000 : en:00:00:00.000
00:04:09.458 : en:00:04:09.458
00:11:51.000 : en:00:11:51.000
00:19:54.083 : en:00:19:54.083
00:27:33.000 : en:00:27:33.000
00:33:59.792 : en:00:33:59.792
00:38:04.917 : en:00:38:04.917
00:45:04.625 : en:00:45:04.625
00:55:43.125 : en:00:55:43.125
01:05:46.542 : en:01:05:46.542
01:14:01.792 : en:01:14:01.792
01:16:34.917 : en:01:16:34.917
01:22:24.250 : en:01:22:24.250
01:28:49.042 : en:01:28:49.042
01:36:09.333 : en:01:36:09.333
01:41:21.917 : en:01:41:21.917

0
7

 
qwertz1 Archiv NFO Poster 16. Okt 2020, 18:36 Uhr
Keine Bewertung des Benutzers
Danke und der Film ist auch hier nicht komplett und endet nach 1 std 35.
0
9

2cool4school
2cool4school User 17. Okt 2020, 09:59 Uhr
Keine Bewertung des Benutzers
Die Szene ist schon lange nicht mehr das, was sie mal war.
Wäre vor Jahren binnen Minuten "genuked" worden.
Es gibt fast keine Konkurrenz mehr, alles wirkt irgendwie wie ausgemacht.
Diese ganze WEB-Rip-Sache hat da keinen guten Dienst getan.
(Und bevor da Einwände kommen: da ist nicht Corinna drann Schuld)
1
4

 
ektom User 17. Okt 2020, 10:29 Uhr
Keine Bewertung des Benutzers
Was haben denn bitte WEB-Rips damit zu tun? In einer funktionierenden Scene wären einfach Rules erstellt worden und gut ist. German Scene war weit voher schon nur noch ein Schatten ihrer selbst.
1
7


Releasebewertung
Produktbewertung: 5,0 / 10
Gesamt: 5 Stimmen

Release-Optionen

Release-Info
Zeit:
16. Okt 2020, 03:00 Uhr
Release-Group:
Release-Größe:
2824 MB
Nuked:
Nein
Repack oder Proper:
Nein
Read NFO:
Nein
NFO-Größe:
0,46 KB
Video-Stream:
Blu-ray
Audio-Stream:
DTS
Kategorien:

Hast du das verstanden? Ja! | Nein!

Is that clear? Yes! | No!