xREL.v3

VOD / HDTV / WEBRip - ReleaseDates - Thema

Board RSS API Hilfe Kontakt
Starfish882
Starfish882 User
13. Sep 2017, 07:35 Uhr
was ist mit Annabelle 2 und Spider-Man Homecoming
Beide sollten doch gestern als Korea VoD erscheinen

suicidecommando
suicidecommando Insider
13. Sep 2017, 08:14 Uhr
Starfish882 schrieb:
was ist mit Annabelle 2 und Spider-Man Homecoming
Beide sollten doch gestern als Korea VoD erscheinen


Annabelle 2 ist auf Naver verfügbar, muss nur noch einer capturen oder wie auch immer auf die HDD bekommen ;)

JJW
JJW User
13. Sep 2017, 15:22 Uhr
Starfish882 schrieb:
was ist mit Annabelle 2 und Spider-Man Homecoming
Beide sollten doch gestern als Korea VoD erscheinen


Und Spiderman Homecoming, @suicidecommando ?

doom2k
doom2k User
13. Sep 2017, 16:09 Uhr
Nicht mal als Pre-Order verfügbar. Dauert wohl noch länger.

cheesy
cheesy User
13. Sep 2017, 19:00 Uhr
Na bald ist ja der 26.09. die 2 Wochen gehen auch schnell rum

 
darum User
13. Sep 2017, 19:52 Uhr
Wenn zeitnah WEB-DL in aussicht ist, wird sich der ein oder andere das Capturen aus Korea sparen, da eh meist ruckelt.

Plattenpapzt
Plattenpapzt User
14. Sep 2017, 15:02 Uhr
suicidecommando schrieb:
Annabelle 2 ist auf Naver verfügbar, muss nur noch einer capturen oder wie auch immer auf die HDD bekommen ;)


Ist draußen, HD sollte bald folgen:
Annabelle.Creation.2017.HC.HDRip.XviD.AC3-EVO

Blofeld
Blofeld User
14. Sep 2017, 15:22 Uhr
1080 is längst raus...wurde nur noch nicht von EVO retagged und geuppt :D

Plattenpapzt
Plattenpapzt User
14. Sep 2017, 15:25 Uhr
Blofeld schrieb:
1080 is längst raus...wurde nur noch nicht von EVO retagged und geuppt :D


Wenn wir schon beim klugscheißen sind, EVO retagged und upped nicht nur, sondern encoded auch noch. Hast du denn die 1080 hier schon eingetragen?

Blofeld
Blofeld User
14. Sep 2017, 15:57 Uhr
Nö weil es chinesisch ist und deswegen ohnehin nicht erlaubt

Mediainfo:
[Spoiler: Zum Lesen hier klicken!]
Format : MPEG-4
Format profile : Base Media
Codec ID : isom (isom/iso2/avc1/mp41)
File size : 3.34 GiB
Duration : 1 h 49 min
Overall bit rate : 4 368 kb/s
Writing application : ShanaEncoder

Video
ID : 1
Format : AVC
Format/Info : Advanced Video Codec
Format profile : High@L4
Format settings, CABAC : Yes
Format settings, RefFrames : 2 frames
Format settings, GOP : M=3, N=13
Codec ID : avc1
Codec ID/Info : Advanced Video Coding
Duration : 1 h 49 min
Bit rate : 4 106 kb/s
Width : 1 920 pixels
Height : 1 080 pixels
Display aspect ratio : 16:9
Frame rate mode : Variable
Frame rate : 23.976 (24000/1001) FPS
Minimum frame rate : 23.810 FPS
Maximum frame rate : 24 000.000 FPS
Color space : YUV
Chroma subsampling : 4:2:0
Bit depth : 8 bits
Scan type : Progressive
Bits/(Pixel*Frame) : 0.083
Stream size : 3.14 GiB (94%)

Audio
ID : 2
Format : AC-3
Format/Info : Audio Coding 3
Format settings, Endianness : Big
Codec ID : ac-3
Duration : 1 h 49 min
Bit rate mode : Constant
Bit rate : 256 kb/s
Channel(s) : 2 channels
Channel positions : Front: L R
Sampling rate : 48.0 kHz
Frame rate : 31.250 FPS (1536 SPF)
Bit depth : 16 bits
Compression mode : Lossy
Stream size : 200 MiB (6%)
Service kind : Complete Main
Default : Yes
Alternate group : 1



http://oo.vg/zK5x2zIISo7kxPesXh57
http://oo.vg/5weTMR1jkRqXQGmYuhHi
http://oo.vg/pgGQx522lDugAXhWOpFW

Abgesehen davon, sonst spielst du doch hier auf xrel immer den großen Klugscheisser, also beschwer dich nicht wenn mans bei dir genauso macht
4 mal bearbeitet, zuletzt 14. Sep 2017, 16:03 Uhr

Plattenpapzt
Plattenpapzt User
14. Sep 2017, 16:02 Uhr
Nö weil es chinesisch ist und deswegen ohnehin nicht erlaubt


Also, nur damit ich das nicht falsch verstehe:
Der Film ist auf Chinesisch mit eingebrannten Koreanischen Untertiteln?

Blofeld
Blofeld User
14. Sep 2017, 16:03 Uhr
Sprache wäre natürlich englisch, aber Name is chinesisch

Plattenpapzt
Plattenpapzt User
14. Sep 2017, 16:17 Uhr
Blofeld schrieb:
Sprache wäre natürlich englisch, aber Name is chinesisch


Dann hält dich auch keine Regel davon ab das im P2P-Bereich hochzuladen.

Blofeld
Blofeld User
14. Sep 2017, 16:26 Uhr
Doch weil ich den dirname verändern müsste schlaumeier, davon abgesehen, ich will es gar nicht posten, ich hab es ja

Was bringt es dir wenn ich den Dirname ändere und es dann auch keiner finden kann? Genau, nichts
1 mal bearbeitet, zuletzt 14. Sep 2017, 16:26 Uhr

Starfish882
Starfish882 User
14. Sep 2017, 17:19 Uhr
Annabelle 2
https://www.xrel.to/p2p/179161-Annabelle-2-HC-WEBRip-MD-GERMAN-x264-SPECTRE/nfo.html

Thanks
1 mal bearbeitet, zuletzt 14. Sep 2017, 17:20 Uhr

 
darum User
15. Sep 2017, 00:31 Uhr
https://www.xrel.to/movie/164514/Die-Verfuehrten.html

The Beguiled
iTunesUnited States

Universal Studios | 2017 | 93 min | Rated R | Sep 26, 2017

Bluray US :
[Spoiler: Zum Lesen hier klicken!]
Universal Studios | 2017 | 94 min | Rated R | Oct 10, 2017


----------------------------------------------------------------------------------

https://www.xrel.to/movie/159834/Atomic-Blonde.html

Atomic Blonde
iTunesUnited States

Universal Studios | 2017 | 114 min | Rated R | Oct 24, 2017

Bluray US :
[Spoiler: Zum Lesen hier klicken!]
Universal Studios | 2017 | 115 min | Rated R | Nov 14, 2017


----------------------------------------------------------------------------------

https://www.xrel.to/movie/151909/Valerian-Die-Stadt-der-Tausend-Planeten.html

Valerian and the City of a Thousand Planets
iTunesUnited States

Lionsgate Films | 2017 | Rated PG-13 | Nov 07, 2017

Bluray US:
[Spoiler: Zum Lesen hier klicken!]
Lionsgate Films | 2017 | 137 min | Rated PG-13 | Nov 21, 2017


bordellmaster007
bordellmaster007 User
20. Sep 2017, 18:53 Uhr
bei naver ist jetzt auch spiderman freigeschaltet http://nstore.naver.com/movie/detail.nhn?productNo=2998198

 
darum User
22. Sep 2017, 22:48 Uhr
https://www.xrel.to/movie/73277/Der-dunkle-Turm.html

The Dark Tower
iTunesUnited States

Sony Pictures | 2017 | 94 min | Rated PG-13 | Oct 17, 2017

Bluray:
[Spoiler: Zum Lesen hier klicken!]
Sony Pictures | 2017 | 95 min | Rated PG-13 | Oct 31, 2017


01
...
23
24
25
26

Thema
Seite: von 26

© 2004-2017 by xrelease. Alle Rechte vorbehalten. [version 3.4-54e72a510081a735c8279c0d240e42a3060d20d2 (20170917-679)]
Systemanforderungen: JavaScript, Cookies, min. 1024x768, IE 9 / Firefox / Opera 9 / Chrome / Safari
Besucher online: 523
Mitglieder online: 45
P2P-Releases
Entertainment
Nach Oben