xREL.v3

VOD / HDTV / WEBRip - ReleaseDates - Thema

Board RSS API Hilfe Kontakt
 
darum User
15. Apr 2018, 16:29 Uhr
https://www.xrel.to/movie/175918/Aus-dem-Nichts.html

In the Fade
iTunes United States

Magnolia Pictures | 2017 | 106 min | Rated R | Apr 17, 2018

Video
Codec: MPEG-4 MVC
Resolution: 480p
Resolution HD: 1080p
Original aspect ratio: 2.39:1

Audio
German: Dolby Digital 5.1

http://www.blu-ray.com/itunes/In-the-Fade-iTunes/93704/

bordellmaster007
bordellmaster007 User
15. Apr 2018, 22:26 Uhr
Red sparrow ist jetzt out KORSUB
Red.Sparrow.2018.1080p.KORSUB.HDRip.x264.AAC2.0-STUTTERSHIT

maDguY
maDguY User
16. Apr 2018, 00:12 Uhr
Red.Sparrow.German.DL.AC3.Dubbed.1080p.WEBRip.x264-PsO

sweeney
sweeney User
16. Apr 2018, 14:52 Uhr
Game Night am 22.5.2018 als US Bluray
VOD ohne genauen Termin
Amazon Video and iTunes is estimated for May 2018.

1 mal bearbeitet, zuletzt 18. Apr 2018, 15:04 Uhr

breitsamer
breitsamer User
18. Apr 2018, 11:33 Uhr
Pacific Rim 2 Uprising 2018 720p HC HDRip X264 AC3-EVO

dark.solution
dark.solution Produktinfo-Editor
18. Apr 2018, 18:30 Uhr
Pacific.Rim.2.Uprising.German.DL.AC3.Dubbed.1080p.WEBRip.x264-PsO

 
whistleblower User
24. Apr 2018, 00:43 Uhr
Maze Runner - Die Auserwählten in der Todeszone

gibt es jetzt im Schweizer iTunes Store mit Deutschem 5.1 Ton.

Mal sehen ob den jemand macht.
Denn bisher gibt es ja nur eine (bescheidene) Mic und bis Retail ist es noch ein bisschen hin.

 
miAU_blub User
24. Apr 2018, 11:25 Uhr
Heute ist uhd retail mit de Ton in den USA

StoneDevil
StoneDevil User
24. Apr 2018, 18:39 Uhr
miAU_blub schrieb:
Heute ist uhd retail mit de Ton in den USA


Quelle 1 kein DE
Quelle 2 kein DE

Deine Quelle ist welche ?

IpWitcher
IpWitcher User
24. Apr 2018, 19:11 Uhr
@StoneDevil

cover oder auch die seiten die du nennst sie nicht immer akutell ...es gibt viele filme wo auf dein cover nix von deutsch bei steht aber die disk deutsch hat

IpWitcher
IpWitcher User
25. Apr 2018, 14:56 Uhr
Maze.Runner.The.Death.Cure.2018.COMPLETE.UHD.BLURAY-COASTER

Deutsch ist mit drauf

zeraw001
zeraw001 User
26. Apr 2018, 09:29 Uhr
duke811 schrieb:
Avengers 3 kommt in Griechenland auch online raus? http://www.imdb.com/title/tt4154756/releaseinfo?ref_=tt_ov_inf
Kann man auf ein frühes Release im Internet hoffen?


Ist das überhaupt möglich, dass ein Konzern wie Marvel/Disney eine Webstream zulassen würde ? Wäre natürlich ein Hammer. Schon dieses Wochenende eine Webrip/Capture ?
Auf welcher Plattform wird es denn gezeigt ? mfg

sweeney
sweeney User
26. Apr 2018, 10:24 Uhr
Naja Disney will ja einen eigenen Streamingdienst anbieten der Netflix Konkurrenz machen soll von daher könnte das schon passen, allerdings soll das ja erst nächstes Jahr starten von daher wäre es zu früh

Mrbones
Mrbones User
26. Apr 2018, 11:08 Uhr
zeraw001 schrieb:
Ist das überhaupt möglich, dass ein Konzern wie Marvel/Disney eine Webstream zulassen würde ? Wäre natürlich ein Hammer. Schon dieses Wochenende eine Webrip/Capture ?
Auf welcher Plattform wird es denn gezeigt ? mfg


Ich habe den Vertrieb, der den Film in Griechenland über facebook angeschrieben.
Die meinten, die Information auf imdb, dass der Film online zugänglich gemacht wird, stimmt nicht. Er wird dort vorerst ausschliesslich im Kino zu sehen sein.

duke811
duke811 User
27. Apr 2018, 16:17 Uhr
Mrbones schrieb:
Ich habe den Vertrieb, der den Film in Griechenland über facebook angeschrieben.
Die meinten, die Information auf imdb, dass der Film online zugänglich gemacht wird, stimmt nicht. Er wird dort vorerst ausschliesslich im Kino zu sehen sein.


Ja, die Info bei imdb ist auch weg...

sweeney
sweeney User
3. Mai 2018, 17:11 Uhr
Tomb Raider ab 29.5. bei US iTunes das hätte ich noch gar nicht erwartet
3 mal bearbeitet, zuletzt 3. Mai 2018, 18:05 Uhr

 
darum User
16. Mai 2018, 22:08 Uhr
Тихоокеанский рубеж 2 / Pacific Rim: Uprising (2018) WEB-DL 1080p -BLUEBIRD

Mediainfo:
[Spoiler: Zum Lesen hier klicken!]
Video
ID : 1
Format : AVC
Format/Info : Advanced Video Codec
Format profile : High@L4
Format settings : CABAC / 5 Ref Frames
Format settings, CABAC : Yes
Format settings, ReFrames : 5 frames
Codec ID : V_MPEG4/ISO/AVC
Duration : 1 h 50 min
Bit rate : 4 421 kb/s
Width : 1 916 pixels
Height : 796 pixels
Display aspect ratio : 2.40:1
Frame rate mode : Constant
Frame rate : 23.976 FPS
Color space : YUV
Chroma subsampling : 4:2:0
Bit depth : 8 bits
Scan type : Progressive
Bits/(Pixel*Frame) : 0.121
Stream size : 3.42 GiB (90%)
Title : PCFC_RIM2_2018_1080p-BLUEBIRD
Language : English
Default : Yes
Forced : No
Color range : Limited
Color primaries : BT.709
Transfer characteristics : BT.709
Matrix coefficients : BT.709

Audio
ID : 2
Format : AC-3
Format/Info : Audio Coding 3
Codec ID : A_AC3
Duration : 1 h 50 min
Bit rate mode : Constant
Bit rate : 384 kb/s
Channel(s) : 6 channels
Channel positions : Front: L C R, Side: L R, LFE
Sampling rate : 48.0 kHz
Frame rate : 31.250 FPS (1536 SPF)
Bit depth : 16 bits
Compression mode : Lossy
Stream size : 304 MiB (8%)
Title : [DUB] DD 5.1 @ 384 kbps (iTunes)
Language : Russian
Service kind : Complete Main
Default : Yes
Forced : No

Menu
00:00:00.000 : en:1
00:06:55.874 : en:2
00:13:06.369 : en:3
00:15:52.076 : en:4
00:20:37.361 : en:5
00:24:50.697 : en:6
00:31:09.242 : en:7
00:37:57.066 : en:8
00:43:38.949 : en:9
00:49:02.939 : en:10
00:53:41.926 : en:11
00:58:13.030 : en:12
01:04:46.006 : en:13
01:09:26.536 : en:14
01:14:37.722 : en:15
01:22:54.427 : en:16
01:29:03.546 : en:17
01:33:11.585 : en:18
01:38:08.381 : en:19
01:40:56.048 : en:20


Ohne Werbeeinblendung !
1 mal bearbeitet, zuletzt 16. Mai 2018, 22:29 Uhr

ZUFETT
ZUFETT User
29. Mai 2018, 09:09 Uhr
Tomb.Raider.2018.WEB-DL.x264-FGT
Tomb.Raider.2018.1080p.WEB-DL.DD5.1.H264-FGT
Tomb.Raider.2018.720p.WEB-DL.XviD.AC3-FGT

 
darum User
30. Mai 2018, 19:15 Uhr
https://www.xrel.to/movie/156961/Rampage-Big-Meets-Bigger.html

Rampage
iTunes United States

4K Ultra HD Warner Bros. | 2018 | 107 min | Rated PG-13 | Jun 26, 2018

Video
Codec: HEVC / H.265
Resolution: 480p
Resolution HD: 4K (2160p)
HDR: Dolby Vision +
Original aspect ratio: 2.39:1

Audio
English: Dolby Digital 5.1
--------------------------------------------------------------------------------------------------------
https://www.xrel.to/movie/155184/Ready-Player-One.html

Ready Player One
iTunes United States

4K Ultra HD Warner Bros. | 2018 | 139 min | Rated PG-13 | Jul 03, 2018

Video
Codec: MPEG-4 AVC
Resolution: 480p
Resolution HD: 4K (2160p)
HDR: Dolby Vision +
Original aspect ratio: 2.39:1

Audio
English: Dolby Digital 5.1
------------------------------------------------------------------------------------------------------
https://www.xrel.to/movie/119835/Pacific-Rim-2-Uprising.html

Pacific Rim: Uprising
iTunes United States

4K Ultra HD Universal Studios | 2018 | 110 min | Rated PG-13 | Jun 05, 2018

Video
Codec: MPEG-4 AVC
Resolution: 480p
Resolution HD: 1080p
HDR: Dolby Vision +
Original aspect ratio: 2.39:1

Audio
English: Dolby Digital 5.1
1 mal bearbeitet, zuletzt 1. Jun 2018, 21:37 Uhr

ZUFETT
ZUFETT User
18. Jun 2018, 08:56 Uhr
Release Group: EVO (P2P)
Release Name: Rampage.2018.1080p.WEB-DL.H264.AC3-EVO
Release Date: 17 June 2018
Filename: Rampage.2018.1080p.WEB-DL.H264.AC3-EVO
Source: iTunes
Size: 3.67GB
Genre: Action, Adventure, Sci-Fi
Video: x264 , 1916×800 | 4990 Kbps
Audio: English , AC3 at 384kbps
Subs: N/A
IMDB Rating: 6.5/10 from 28,893 Users
RT Critics: 5.4/10
Directed By: Brad Peyton
Starring: Dwayne Johnson, Naomie Harris, Malin Akerman

01
...
28
29
30
31
32
33

Thema
Seite: von 33

© 2004-2018 by xrelease. Alle Rechte vorbehalten.
Version: 3.4-722b773381020550e9825ad02ab409ba873efc62 [20180819-491]
Besucher online: 944
Mitglieder online: 117
P2P-Releases
Entertainment
Nach Oben