xREL.v3

Releases von DragonBall Super Broly - Thema

Board RSS API Hilfe Kontakt
Monkey.D.Dragon
Monkey.D.Dragon User
24. Jan 2019, 15:14 Uhr
Topic sagt alles :=) hab bis jetzt nur so eine Handy Cam aufnahme gefunden aber die zu gucken das tut weh :X gibt es was besser oder ist etwas bekannt ? egal ob US mit Subs oder Japanisch mit Subs :)

mfg

Mrbones
Mrbones User
24. Jan 2019, 17:00 Uhr
Hi, den gibt es am 29.01. in jedem Cinestar mit deutschen Untertiteln.

Wer sowas heute noch unbedingt schauen will wie du, der soll dafür bezahlen.

Anders würde es diesen langweiligen Quatsch nicht mehr geben.

Ich habe nach Dragonball GT aufgehört. Aus sowas wächst man raus.

Immer dieses "sie sind so schnell, man kann sie nicht mal mehr beim Kämpfen verfolgen" und "er hat eine neue Stufe erreicht, jetzt ist er elfischmillionenfach stärker".

Das hat einfach kein Ende. Bald gibt es den Superdupermegasayajin mit regenbogenfarbenen Haaren.

Das wird doch alles nur noch ausgelutscht. Wie oft sollen Freezer, Cell und co. noch auferstehen?

Weisst Du wieso Freezer und Cell im Jenseits eigentlich ihre Körper behalten durften?

Ich dachte nur so Leute wie Son-Goku, die etwas besonders gutes getan haben, dürfen das...

Liebe Grüsse,

der Ex-Fan.

Madvillainy
Madvillainy User
24. Jan 2019, 18:29 Uhr
Mrbones schrieb:
Hi, den gibt es am 29.01. in jedem Cinestar mit deutschen Untertiteln.

Wer sowas heute noch unbedingt schauen will wie du, der soll dafür bezahlen.

Anders würde es diesen langweiligen Quatsch nicht mehr geben.

Ich habe nach Dragonball GT aufgehört. Aus sowas wächst man raus.

Immer dieses "sie sind so schnell, man kann sie nicht mal mehr beim Kämpfen verfolgen" und "er hat eine neue Stufe erreicht, jetzt ist er elfischmillionenfach stärker".

Das hat einfach kein Ende. Bald gibt es den Superdupermegasayajin mit regenbogenfarbenen Haaren.

Das wird doch alles nur noch ausgelutscht. Wie oft sollen Freezer, Cell und co. noch auferstehen?

Weisst Du wieso Freezer und Cell im Jenseits eigentlich ihre Körper behalten durften?

Ich dachte nur so Leute wie Son-Goku, die etwas besonders gutes getan haben, dürfen das...

Liebe Grüsse,

der Ex-Fan.


du hast ein spongebob ava

sweeney
sweeney User
24. Jan 2019, 19:02 Uhr
xD also das jetzt zu verallgemeinern das man aus sowas rauswächst find ich jetzt mal überflüssig...ka wie alt du bist aber ich bin froh sich sowas beizubehalten. bin totaler minions fan, auch spongebob

 
Crypton User
24. Jan 2019, 19:50 Uhr
Mrbones schrieb:
Hi, den gibt es am 29.01. in jedem Cinestar mit deutschen Untertiteln.

Wer sowas heute noch unbedingt schauen will wie du, der soll dafür bezahlen.

Anders würde es diesen langweiligen Quatsch nicht mehr geben.

Ich habe nach Dragonball GT aufgehört. Aus sowas wächst man raus.

Immer dieses "sie sind so schnell, man kann sie nicht mal mehr beim Kämpfen verfolgen" und "er hat eine neue Stufe erreicht, jetzt ist er elfischmillionenfach stärker".

Das hat einfach kein Ende. Bald gibt es den Superdupermegasayajin mit regenbogenfarbenen Haaren.

Das wird doch alles nur noch ausgelutscht. Wie oft sollen Freezer, Cell und co. noch auferstehen?

Weisst Du wieso Freezer und Cell im Jenseits eigentlich ihre Körper behalten durften?

Ich dachte nur so Leute wie Son-Goku, die etwas besonders gutes getan haben, dürfen das...

Liebe Grüsse,

der Ex-Fan.


man hat es im Anime wo die Hölle nur als Filler vorgekommen ist schlicht ignoriert

Monkey.D.Dragon
Monkey.D.Dragon User
24. Jan 2019, 21:46 Uhr
Mrbones schrieb:
Hi, den gibt es am 29.01. in jedem Cinestar mit deutschen Untertiteln.

Wer sowas heute noch unbedingt schauen will wie du, der soll dafür bezahlen.

Anders würde es diesen langweiligen Quatsch nicht mehr geben.

Ich habe nach Dragonball GT aufgehört. Aus sowas wächst man raus.

Immer dieses "sie sind so schnell, man kann sie nicht mal mehr beim Kämpfen verfolgen" und "er hat eine neue Stufe erreicht, jetzt ist er elfischmillionenfach stärker".

Das hat einfach kein Ende. Bald gibt es den Superdupermegasayajin mit regenbogenfarbenen Haaren.

Das wird doch alles nur noch ausgelutscht. Wie oft sollen Freezer, Cell und co. noch auferstehen?

Weisst Du wieso Freezer und Cell im Jenseits eigentlich ihre Körper behalten durften?

Ich dachte nur so Leute wie Son-Goku, die etwas besonders gutes getan haben, dürfen das...

Liebe Grüsse,

der Ex-Fan.


ähm ok nachdem ich nun gelesen habe Dragonball GT hab ich den rest ignoriert o_O sry und mir ist klar das er nächste woche ins Kino kommt nur leider nicht in jedes Kino... und ich fahre keine Stunden nur um 1 Film zu sehen sry ..

sweeney
sweeney User
25. Jan 2019, 12:42 Uhr
Im April wohl bei Amazon.com und Netflix also wirds noch eine Weile dauern

 
gomehi User
25. Jan 2019, 14:56 Uhr
Dragon Ball FighterZ dieses Wochenende kostenlos spielbar

https://news.xbox.com/en-us/2019/01/23/play-dragon-ball-fighterz-free-this-weekend-with-xbox-live-gold/

Edit: Bei Steam auch...

https://store.steampowered.com/app/678950/DRAGON_BALL_FighterZ/
1 mal bearbeitet, zuletzt 25. Jan 2019, 15:06 Uhr

_danny_
_danny_ User
28. Jan 2019, 12:19 Uhr
Dragon Ball Super: Broly English Dub & Japanese Audio+English Subtitles Sync [720p Screener]

Den Screens nach wohl wirklich ein Screener, geladen hab ich es aber nicht

https://images2.imgbox.com/3f/a9/5YzdJPW3_o.jpg
https://images2.imgbox.com/ef/ac/5xx8efsO_o.jpg
https://images2.imgbox.com/09/4f/mU928lHa_o.jpg

amcberlin
amcberlin User
28. Jan 2019, 13:52 Uhr
http://imgbox.com/wyk1d0xl von VLC direkt :)

Ton English vom Screener
Ton Jap von der CAM
Untertitel deaktivierbar
Abspann Vollständig
2 mal bearbeitet, zuletzt 28. Jan 2019, 13:53 Uhr

 
Biosy.Baris User
28. Jan 2019, 15:42 Uhr
Bardok und King Cold? Ich glaube nicht, dass das der richtige Film ist. Oder ich habe mich noch nicht genug damit beschäftigt.

bam bam
bam bam Produktinfo-/.nfo-Verwaltung
28. Jan 2019, 16:08 Uhr
Dragon Ball Super: Broly English Dub | Internal Screener Leak |

[Spoiler: Zum Lesen hier klicken!]
General
Complete name : D:\Downloads\Dbs broly movie.mp4
Format : MPEG-4
Format profile : Base Media
Codec ID : isom (isom/iso2/avc1/mp41)
File size : 1.15 GiB
Duration : 1 h 41 min
Overall bit rate : 1 627 kb/s
Writing application : Lavf57.71.100

Video
ID : 1
Format : AVC
Format/Info : Advanced Video Codec
Format profile : Main@L3.1
Format settings : CABAC / 3 Ref Frames
Format settings, CABAC : Yes
Format settings, RefFrames : 3 frames
Codec ID : avc1
Codec ID/Info : Advanced Video Coding
Duration : 1 h 41 min
Bit rate : 1 492 kb/s
Width : 1 280 pixels
Height : 720 pixels
Display aspect ratio : 16:9
Frame rate mode : Constant
Frame rate : 26.706 FPS
Color space : YUV
Chroma subsampling : 4:2:0
Bit depth : 8 bits
Scan type : Progressive
Bits/(Pixel*Frame) : 0.061
Stream size : 1.06 GiB (92%)
Color range : Limited
Color primaries : BT.709
Transfer characteristics : BT.709
Matrix coefficients : BT.709
Codec configuration box : avcC

Audio
ID : 2
Format : AAC LC
Format/Info : Advanced Audio Codec Low Complexity
Codec ID : mp4a-40-2
Duration : 1 h 41 min
Bit rate mode : Constant
Bit rate : 128 kb/s
Channel(s) : 2 channels
Channel layout : L R
Sampling rate : 44.1 kHz
Frame rate : 43.066 FPS (1024 SPF)
Compression mode : Lossy
Stream size : 92.9 MiB (8%)
Default : Yes
Alternate group : 1




Dragon Ball Super: Broly English Dub & Japanese Audio+English Subtitles Sync [720p Screener]

[Spoiler: Zum Lesen hier klicken!]

japanese audio + english subtitles
defaultoriginal video is sourced from YouTube.
audio is from the japanese camrips floating around.
Format : Matroska
Format version : Version 4
File size : 1.29 GiB
Duration : 1 h 41 min
Overall bit rate : 1 815 kb/s
Encoded date : UTC 2019-01-28 00:02:07
Writing application : mkvmerge v13.0.0 ('The Juggler')
64bitWriting library : libebml v1.3.4 + libmatroska v1.4.5
VideoID : 1
Format : AVC
Format/Info : Advanced Video Codec
Format profile : Main@L3.1
Format settings : CABAC / 3 Ref Frames
Format settings, CABAC : Yes
Format settings, RefFrames : 3 frames
Codec ID : V_MPEG4/ISO/AVC
Duration : 1 h 41 minBit rate : 1 492 kb/s
Width : 1 280 pixels
Height : 720 pixels
Display aspect ratio : 16:9
Frame rate mode : Constant
Frame rate : 26.706 FPS
Color space : YUV
Chroma subsampling : 4:2:0
Bit depth : 8 bits
Scan type : Progressive
Bits/(Pixel*Frame) : 0.061
Stream size : 1.06 GiB (82%)
Title : Screener Leak
Language : English
Default : Yes
Forced : No
Color range : Limited
Color primaries : BT.709
Transfer characteristics : BT.709
Matrix coefficients : BT.709
Audio #1
ID : 2Format : AAC LC
Format/Info : Advanced Audio Codec Low Complexity
Codec ID : A_AAC-2
Duration : 1 h 39 min
Bit rate : 192 kb/sChannel(s) : 2 channels
Channel layout : L R
Sampling rate : 48.0 kHz
Frame rate : 46.875 FPS (1024 SPF)
Compression mode : Lossy
Delay relative to video : 11 s 385 ms
Stream size : 139 MiB (11%)
Title : Japanese
camripLanguage : Japanese
Default : Yes
Forced : No
Audio #2
ID : 3Format : AAC LC
Format/Info : Advanced Audio Codec Low Complexity
Codec ID : A_AAC-2
Duration : 1 h 41 min
Bit rate : 128 kb/sChannel(s) : 2 channels
Channel layout : L RSampling rate : 44.1 kHz
Frame rate : 43.066 FPS (1024 SPF)
Compression mode : Lossy
Stream size : 92.8 MiB (7%)
Title : Screener Leak
Language : English
Default : No
Forced : No
TextID : 4
Format : ASS
Codec ID : S_TEXT/ASS
Codec ID/Info : Advanced Sub Station Alpha
Duration : 1 h 38 min
Bit rate : 79 b/s
Count of elements : 1037
Compression mode : Lossless
Stream size : 57.0 KiB (0%)
Title : PotatoHead
Language : English
Default : Yes
Forced : No

1 mal bearbeitet, zuletzt 28. Jan 2019, 17:25 Uhr

_danny_
_danny_ User
28. Jan 2019, 16:50 Uhr
Biosy.Baris schrieb:
Bardok und King Cold? Ich glaube nicht, dass das der richtige Film ist. Oder ich habe mich noch nicht genug damit beschäftigt.


https://en.wikipedia.org/wiki/Dragon_Ball_Super:_Broly

Da beide Charaktere einen Synchronsprecher haben werden sie dementsprechend auch im Film vorkommen

amcberlin
amcberlin User
3. Feb 2019, 17:04 Uhr
Dragonball.Super.Broly.2019.Ger.Sub.720p.HDTC.X264-DJ-Sub
hardcoded untertitel nur jap cam audio

bam bam
bam bam Produktinfo-/.nfo-Verwaltung
4. Feb 2019, 20:53 Uhr
Dragon Ball Super: Broly 1080p English Dub

11.64 GB

Framerate is a little weird some parts of first 30 minutes.

 
Biosy.Baris User
5. Feb 2019, 22:42 Uhr
Kann man sich mit den Releases anschauen. Ton ist vielleicht nicht ganz optimal.
Film ist ziemlich durchwachsen. Die Action geht schon klar, aber wirkt alles so gerusht und keineswegs besser konzipiert als die alten Dragon Ball Z Filme und das obwohl Toriyama direkt involviert war.


© 2004-2019 by xrelease. Alle Rechte vorbehalten.
Version: efed11f15bc1dbdd1b8b9f7282c64f3f603ae159 [20191013-508]
Besucher online: 937
Mitglieder online: 87
P2P-Releases
Entertainment
Nach Oben