xREL.v3

Suche : One Piece: Stampede - Thema

Sprache wählen
Board RSS API Hilfe Kontakt
Monkey.D.Dragon
Monkey.D.Dragon User
6. Okt 2019, 16:14 Uhr
Hey Community , gibt es neuigkeiten wann ein WebRip oder sonstiges von diesem Anime erscheint ? :) bis jetzt hab ich nirgends was gefunden

bin für jede hilfe dankbar :)

Monkey.D.Dragon
Monkey.D.Dragon User
7. Dez 2019, 23:05 Uhr
hmm ich finde einfach nix zu dem film ? jemand mehr glück wäre nice :)

Jeff Hardy
Jeff Hardy User
8. Dez 2019, 10:35 Uhr
Japan BluRay Release ist am 18.03.2020. Spätestens dann wird's was geben.

https://www.amazon.co.jp/dp/B081T8DZ83/

Monkey.D.Dragon
Monkey.D.Dragon User
8. Dez 2019, 14:55 Uhr
Jeff Hardy schrieb:
Japan BluRay Release ist am 18.03.2020. Spätestens dann wird's was geben.

https://www.amazon.co.jp/dp/B081T8DZ83/


alles klar danke krass das es so ewig dauert diesmal Dragonball Broly ging deutlich schneller

Jeff Hardy
Jeff Hardy User
8. Jan 2020, 01:04 Uhr
Es gibt übrigens mittlerweile einen 720p China Webrip. Bei boerse gibt es das Release

One.Piece.Stampede.Film.2019.EngSub.JapDub.EAC3.720p.WEBRip.x264-IOPHD

Cinemon
Cinemon User
8. Jan 2020, 09:58 Uhr
Jeff Hardy schrieb:
Es gibt übrigens mittlerweile einen 720p China Webrip. Bei boerse gibt es das Release

One.Piece.Stampede.Film.2019.EngSub.JapDub.EAC3.720p.WEBRip.x264-IOPHD


https://www.xrel.to/p2p/233879-One-Piece-Stampede-Film-2019-EngSub-JapDub-EAC3-720p-WEBRip-x264-IOPHD/nfo.html

bam bam
bam bam Produktinfo-/.nfo-Verwaltung
8. Jan 2020, 20:56 Uhr
One Piece Stampede (2019) HDRip 1080p AAC x264.mkv

[Spoiler: Zum Lesen hier klicken!]
Général Identifiant unique : 186289167199829621054303081759183532679 (0x8C25FD111F3C750D0117AEB7E040F287) Nom complet : One Piece Stampede (2019) CHI HDRip 1080p AAC x264.mkv Format : Matroska Version du format : Version 4 / Version 2 Taille du fichier : 1,93 Gio Durée : 1 h 41 min Débit global moyen : 2 735 kb/s Date d'encodage : UTC 2020-01-01 04:05:54 Application utilisée : mkvmerge v20.0.0 ('I Am The Sun') 64-bit Bibliothèque utilisée : libebml v1.3.5 + libmatroska v1.4.8 Vidéo ID : 2 Format : AVC Format/Info : Advanced Video Codec Profil du format : Baseline@L4 Paramètres du format : 1 Ref Frames Paramètres du format, CABAC : Non Paramètres du format, RefFrames : 1 image Paramètres du format, GOP : M=1, N=12 Identifiant du codec : V_MPEG4/ISO/AVC Durée : 1 h 41 min Débit : 2 500 kb/s Largeur : 1 920 pixels Hauteur : 1 040 pixels Format à l'écran : 1,85:1 Type d'images/s : Constant Images par seconde : 24,000 Im/s Espace de couleurs : YUV Sous-échantillonnage de la chrominance : 4:2:0 Profondeur des couleurs : 8 bits Type de balayage : Progressif Bits/(Pixel*Image) : 0.052 Taille du flux : 1,80 Gio (93%) Bibliothèque utilisée : x264 core 118 Paramètres d'encodage : cabac=0 / ref=1 / deblock=1:0:0 / analyse=0x1:0x111 / me=dia / subme=0 / psy=0 / mixed_ref=0 / me_range=16 / chroma_me=1 / trellis=0 / 8x8dct=0 / cqm=0 / deadzone=21,11 / fast_pskip=1 / chroma_qp_offset=0 / threads=8 / sliced_threads=0 / nr=0 / decimate=1 / interlaced=0 / bluray_compat=0 / constrained_intra=0 / bframes=0 / weightp=0 / keyint=12 / keyint_min=1 / scenecut=0 / intra_refresh=0 / rc=abr / mbtree=0 / bitrate=2500 / ratetol=1.0 / qcomp=0.60 / qpmin=10 / qpmax=51 / qpstep=4 / ip_ratio=1.40 / aq=0 Default : Oui Forced : Non Audio #1 ID : 1 Format : AAC Format/Info : Advanced Audio Codec Profil du format : LC Identifiant du codec : A_AAC-2 Durée : 1 h 41 min Débit : 126 kb/s Canaux : 2 canaux Position des cannaux : Front: L R Echantillonnage : 48,0 kHz Images par seconde : 46,875 Im/s (1024 SPF) Mode de compression : Avec perte Taille du flux : 91,4 Mio (5%) Titre : 日语 Default : Oui Forced : Non Audio #2 ID : 3 Format : AAC Format/Info : Advanced Audio Codec Profil du format : LC Identifiant du codec : A_AAC-2 Durée : 1 h 41 min Débit : 62,0 kb/s Canaux : 2 canaux Position des cannaux : Front: L R Echantillonnage : 44,1 kHz Images par seconde : 43,066 Im/s (1024 SPF) Mode de compression : Avec perte Taille du flux : 44,8 Mio (2%) Titre : 国语 Default : Non Forced : Non


eine Cam gabs auch, erschienen 2019-08-29
One Piece Stampede (2019) TC HC Cam 1080p AAC x264.mkv
allerdings ohne sub,,,
1 mal bearbeitet, zuletzt 8. Jan 2020, 21:04 Uhr

Monkey.D.Dragon
Monkey.D.Dragon User
8. Jan 2020, 23:30 Uhr
Jeff Hardy schrieb:
Es gibt übrigens mittlerweile einen 720p China Webrip. Bei boerse gibt es das Release

One.Piece.Stampede.Film.2019.EngSub.JapDub.EAC3.720p.WEBRip.x264-IOPHD


danke leider hab ich kein ddl.to account und so dauert der dl 8 stunden , und das 1080p release hab ich gefunden aber ist nicht mit subs , japanisch ist mir egal aber subs bräuchte ich :D

danke euch !

Cinemon
Cinemon User
9. Jan 2020, 06:32 Uhr
Melde
Monkey.D.Dragon schrieb:
danke leider hab ich kein ddl.to account und so dauert der dl 8 stunden , und das 1080p release hab ich gefunden aber ist nicht mit subs , japanisch ist mir egal aber subs bräuchte ich :D

danke euch !



Melde dich mal per PN.

bam bam
bam bam Produktinfo-/.nfo-Verwaltung
9. Jan 2020, 15:24 Uhr
Monkey.D.Dragon schrieb:
und das 1080p release hab ich gefunden aber ist nicht mit subs


subs gibts auf den bekannten Seiten...

jetzt auch mit subs:

[totoy_MOLA]_One Piece:Stampede 2019 [1080p][AAC][x264 ]

[Spoiler: Zum Lesen hier klicken!]

General
Unique ID : 331364668140649677575978311102023534635 (0xF94A838115455596BBC3257153AB082B)
Complete name : [totoy_MOLA]_One Piece:Stampede 2019 [1080p][AAC][x264 ].mkv
Format : Matroska
Format version : Version 4
File size : 1.47 GiB
Duration : 1 h 40 min
Overall bit rate : 2 089 kb/s
Movie name : totoy_MOLA
Encoded date : UTC 2020-01-09 15:22:30
Writing application : mkvmerge v34.0.0 ('Sight and Seen') 64-bit
Writing library : libebml v1.3.7 + libmatroska v1.5.0

Video
ID : 1
Format : AVC
Format/Info : Advanced Video Codec
Format profile : High@L4
Format settings : CABAC / 3 Ref Frames
Format settings, CABAC : Yes
Format settings, ReFrames : 3 frames
Codec ID : V_MPEG4/ISO/AVC
Duration : 1 h 40 min
Bit rate : 1 962 kb/s
Width : 1 920 pixels
Height : 1 040 pixels
Display aspect ratio : 1.85:1
Frame rate mode : Constant
Frame rate : 24.000 FPS
Color space : YUV
Chroma subsampling : 4:2:0
Bit depth : 8 bits
Scan type : Progressive
Bits/(Pixel*Frame) : 0.041
Stream size : 1.38 GiB (94%)
Default : Yes
Forced : No
Color range : Limited
Color primaries : BT.709
Transfer characteristics : BT.709
Matrix coefficients : BT.709

Audio
ID : 3
Format : AAC LC
Format/Info : Advanced Audio Codec Low Complexity
Codec ID : A_AAC-2
Duration : 1 h 40 min
Bit rate : 125 kb/s
Channel(s) : 2 channels
Channel layout : L R
Sampling rate : 44.1 kHz
Frame rate : 43.066 FPS (1024 SPF)
Compression mode : Lossy
Delay relative to video : 11 ms
Stream size : 90.0 MiB (6%)
Title : Japanese
Language : Japanese
Default : Yes
Forced : No

Text
ID : 2
Format : ASS
Codec ID : S_TEXT/ASS
Codec ID/Info : Advanced Sub Station Alpha
Duration : 1 h 40 min
Bit rate : 90 b/s
Count of elements : 1362
Compression mode : Lossless
Stream size : 66.7 KiB (0%)
Title : English
Language : English
Default : Yes
Forced : Yes


mal kurz reingeschaut...Bild/Ton is okay, aber der sub is furchtbar...ließt sich wie google translate...
2 mal bearbeitet, zuletzt 9. Jan 2020, 21:50 Uhr

Monkey.D.Dragon
Monkey.D.Dragon User
9. Jan 2020, 23:02 Uhr
bam bam schrieb:
subs gibts auf den bekannten Seiten...

jetzt auch mit subs:

[totoy_MOLA]_One Piece:Stampede 2019 [1080p][AAC][x264 ]

[Spoiler: Zum Lesen hier klicken!]

General
Unique ID : 331364668140649677575978311102023534635 (0xF94A838115455596BBC3257153AB082B)
Complete name : [totoy_MOLA]_One Piece:Stampede 2019 [1080p][AAC][x264 ].mkv
Format : Matroska
Format version : Version 4
File size : 1.47 GiB
Duration : 1 h 40 min
Overall bit rate : 2 089 kb/s
Movie name : totoy_MOLA
Encoded date : UTC 2020-01-09 15:22:30
Writing application : mkvmerge v34.0.0 ('Sight and Seen') 64-bit
Writing library : libebml v1.3.7 + libmatroska v1.5.0

Video
ID : 1
Format : AVC
Format/Info : Advanced Video Codec
Format profile : High@L4
Format settings : CABAC / 3 Ref Frames
Format settings, CABAC : Yes
Format settings, ReFrames : 3 frames
Codec ID : V_MPEG4/ISO/AVC
Duration : 1 h 40 min
Bit rate : 1 962 kb/s
Width : 1 920 pixels
Height : 1 040 pixels
Display aspect ratio : 1.85:1
Frame rate mode : Constant
Frame rate : 24.000 FPS
Color space : YUV
Chroma subsampling : 4:2:0
Bit depth : 8 bits
Scan type : Progressive
Bits/(Pixel*Frame) : 0.041
Stream size : 1.38 GiB (94%)
Default : Yes
Forced : No
Color range : Limited
Color primaries : BT.709
Transfer characteristics : BT.709
Matrix coefficients : BT.709

Audio
ID : 3
Format : AAC LC
Format/Info : Advanced Audio Codec Low Complexity
Codec ID : A_AAC-2
Duration : 1 h 40 min
Bit rate : 125 kb/s
Channel(s) : 2 channels
Channel layout : L R
Sampling rate : 44.1 kHz
Frame rate : 43.066 FPS (1024 SPF)
Compression mode : Lossy
Delay relative to video : 11 ms
Stream size : 90.0 MiB (6%)
Title : Japanese
Language : Japanese
Default : Yes
Forced : No

Text
ID : 2
Format : ASS
Codec ID : S_TEXT/ASS
Codec ID/Info : Advanced Sub Station Alpha
Duration : 1 h 40 min
Bit rate : 90 b/s
Count of elements : 1362
Compression mode : Lossless
Stream size : 66.7 KiB (0%)
Title : English
Language : English
Default : Yes
Forced : Yes


mal kurz reingeschaut...Bild/Ton is okay, aber der sub is furchtbar...ließt sich wie google translate...


hast du maybe links zu der version ?

bam bam
bam bam Produktinfo-/.nfo-Verwaltung
10. Jan 2020, 16:24 Uhr
google suche hilft ... :)

Monkey.D.Dragon
Monkey.D.Dragon User
10. Jan 2020, 23:20 Uhr
bam bam schrieb:
google suche hilft ... :)


gefunden danke dafür ^^

bam bam
bam bam Produktinfo-/.nfo-Verwaltung
14. Jan 2020, 17:36 Uhr
[SwissBang]_One_Piece_-_Stampede_[VOSTFR][FHD_1920x1080]

[Spoiler: Zum Lesen hier klicken!]
*******************************************************************************
One Piece : Stampede
*******************************************************************************

-------------------------------------------------------------------------------
General Information
-------------------------------------------------------------------------------
Complete name : [SwissBang]_One_Piece_-_Stampede_[VOSTFR][FHD_1920x1080].mp4
Format : MPEG-4
Format profile : Base Media
Codec ID : isom (isom/avc1)
File size : 4.08 GiB
Duration : 1 h 41 min
Overall bit rate mode : Variable
Overall bit rate : 5 775 kb/s
Encoded date : UTC 2020-01-09 05:55:16
Tagged date : UTC 2020-01-09 05:55:16

Video
ID : 1
Format : AVC
Format/Info : Advanced Video Codec
Format profile : Main@L4.2
Format settings : CABAC / 4 Ref Frames
Format settings, CABAC : Yes
Format settings, Reference fra : 4 frames
Codec ID : avc1
Codec ID/Info : Advanced Video Coding
Duration : 1 h 41 min
Bit rate : 5 515 kb/s
Maximum bit rate : 32.6 Mb/s
Width : 1 920 pixels
Height : 1 080 pixels
Display aspect ratio : 16:9
Frame rate mode : Constant
Frame rate : 24.000 FPS
Color space : YUV
Chroma subsampling : 4:2:0
Bit depth : 8 bits
Scan type : Progressive
Bits/(Pixel*Frame) : 0.111
Stream size : 3.89 GiB (96%)
Writing library : x264 core 157 r2969 d4099dd
Encoded date : UTC 2020-01-09 05:55:16
Tagged date : UTC 2020-01-09 05:56:07
Color range : Limited
Color primaries : BT.709
Transfer characteristics : BT.709
Matrix coefficients : BT.709
Codec configuration box : avcC

-------------------------------------------------------------------------------
Audio Information
-------------------------------------------------------------------------------
ID : 2
Format : AAC LC
Format/Info : Advanced Audio Codec Low Complexity
Codec ID : mp4a-40-2
Duration : 1 h 41 min
Bit rate mode : Variable
Bit rate : 256 kb/s
Maximum bit rate : 271 kb/s
Channel(s) : 6 channels
Channel layout : C L R Ls Rs LFE
Sampling rate : 48.0 kHz
Frame rate : 46.875 FPS (1024 SPF)
Compression mode : Lossy
Stream size : 185 MiB (4%)
Title : 5.1
Language : Japanese
Encoded date : UTC 2020-01-09 05:20:30
Tagged date : UTC 2020-01-09 05:56:07

-------------------------------------------------------------------------------
Post Information
-------------------------------------------------------------------------------
Posted by............: SwissBang
Posted on............: 09.01.2020
Repost Policy........: None

-------------------------------------------------------------------------------
Release Notes
-------------------------------------------------------------------------------
We are SwissBang