xREL.v3

Green.Book.Eine.besondere.Freundschaft.2018.GERMAN.AC3.MD.DVDScr.x264-CARTEL - Kommentare

Board RSS API Hilfe Kontakt
j0nezzz
j0nezzz AFRiKA.&.P0LiSH♥|✝ 11. Feb 2019, 08:34 Uhr
8.0 / 9.0
Screens

Ton ist synchron, gut verständlich. Ein bisschen dumpf, Nebengeräusche habe ich keine gehört. Deutsche Forced Subs sind Hardcoded (siehe Screens). Im gesamten aber eine gute MiC.

MediaInfo:

[Spoiler: Zum Lesen hier klicken!]
General
Unique ID : 192967633261403992082335885474265771893 (0x912C36DDA5AC26D5AC7B0184AFDB2F75)
Complete name : W:\Green.Book.Eine.besondere.Freundschaft.2018.GERMAN.AC3.MD.DVDScr.x264-CARTEL\cartel-grboc.mkv
Format : Matroska
Format version : Version 4 / Version 2
File size : 1.26 GiB
Duration : 2 h 9 min
Overall bit rate : 1 394 kb/s
Encoded date : UTC 2019-02-10 20:02:44
Writing application : mkvmerge v7.8.0 ('River Man') 64bit built on Mar 27 2015 16:31:37
Writing library : libebml v1.3.1 + libmatroska v1.4.2

Video
ID : 1
Format : AVC
Format/Info : Advanced Video Codec
Format profile : High@L4.1
Format settings : CABAC / 4 Ref Frames
Format settings, CABAC : Yes
Format settings, ReFrames : 4 frames
Codec ID : V_MPEG4/ISO/AVC
Duration : 2 h 9 min
Bit rate : 1 200 kb/s
Width : 720 pixels
Height : 368 pixels
Display aspect ratio : 1.957
Frame rate mode : Constant
Frame rate : 23.976 (24000/1001) FPS
Color space : YUV
Chroma subsampling : 4:2:0
Bit depth : 8 bits
Scan type : Progressive
Bits/(Pixel*Frame) : 0.189
Stream size : 1.08 GiB (86%)
Writing library : x264 core 148 r2638 7599210
Encoding settings : cabac=1 / ref=3 / deblock=1:0:0 / analyse=0x3:0x113 / me=hex / subme=7 / psy=1 / psy_rd=1.00:0.00 / mixed_ref=1 / me_range=16 / chroma_me=1 / trellis=1 / 8x8dct=1 / cqm=0 / deadzone=21,11 / fast_pskip=1 / chroma_qp_offset=-2 / threads=11 / lookahead_threads=1 / sliced_threads=0 / nr=0 / decimate=1 / interlaced=0 / bluray_compat=0 / constrained_intra=0 / bframes=3 / b_pyramid=2 / b_adapt=1 / b_bias=0 / direct=1 / weightb=1 / open_gop=0 / weightp=2 / keyint=240 / keyint_min=23 / scenecut=40 / intra_refresh=0 / rc_lookahead=40 / rc=2pass / mbtree=1 / bitrate=1200 / ratetol=1.0 / qcomp=0.60 / qpmin=0 / qpmax=69 / qpstep=4 / cplxblur=20.0 / qblur=0.5 / vbv_maxrate=62500 / vbv_bufsize=78125 / nal_hrd=none / filler=0 / ip_ratio=1.40 / aq=1:1.00
Default : Yes
Forced : No

Audio
ID : 2
Format : AC-3
Format/Info : Audio Coding 3
Commercial name : Dolby Digital
Codec ID : A_AC3
Duration : 2 h 9 min
Bit rate mode : Constant
Bit rate : 192 kb/s
Channel(s) : 2 channels
Channel layout : L R
Sampling rate : 48.0 kHz
Frame rate : 31.250 FPS (1536 SPF)
Bit depth : 16 bits
Compression mode : Lossy
Stream size : 178 MiB (14%)
Service kind : Complete Main
Default : Yes
Forced : No


Danke an CARTEL fürs Release. Film kann man sich so anschauen :)
0
10

 
f2e4k User 11. Feb 2019, 17:41 Uhr
8.0 / 9.0
Bild ist etwas unscharf und leider deutlich blockig/Artefakte sichtbar.

Die Mic klingt sehr gut, leicht dumpf und nur leichter Hall. Nebengeräusche sind ein paar mal hörbar:
Dies geht von einem leisen Husten ganz am Anfang (bei der Szene in der Garderobe) bis zu deutlich hörbarem Lachen mehrerer Zuschauer z.b. bei 1:05:56. :D (8-9/10)
0
6


Releasebewertung
Ø Durchschn. Releasebewertung
Gesamt: 5 Stimmen
Bildqualität: 8,0 / 10
Tonqualität: 8,6 / 10
Produktbewertung: 8,0 / 10
Gesamt: 5 Stimmen

Release-Optionen

© 2004-2019 by xrelease. Alle Rechte vorbehalten.
Version: 3.4-e7f665f0d9a7ead2defc1e4407a9047204964e93 [20181123-284]
Besucher online: 473
Mitglieder online: 33
P2P-Releases
Entertainment
Nach Oben

Hast du das verstanden? Ja! | Nein!

Is that clear? Yes! | No!