xREL.v3

Bad.Boys.for.Life.2020.1080p.HDRip.X264.AC3-EVO - Kommentare

Sprache wählen
Board RSS API Hilfe Kontakt
xx-astrix-xx
xx-astrix-xx User 26. Mär 2020, 20:27 Uhr
Keine Bewertung des Benutzers
jetzt bitte noch ne line drunter und es wäre ein traum :love:
5
8

 
darum User 26. Mär 2020, 20:35 Uhr
Keine Bewertung des Benutzers
TIVTC gehört angewandt !

Mediainfo:
[Spoiler: Zum Lesen hier klicken!]
Allgemein

Vollständiger Name : Bad.Boys.for.Life.2020.1080p.HDRip.X264.AC3-EVO.mkv
Format : Matroska
Format-Version : Version 4
Dateigröße : 3,58 GiB
Dauer : 2 h 2 min
Gesamte Bitrate : 4 167 kb/s
Filmname : EVO
Kodierungs-Datum : UTC 2020-03-26 14:08:52
Kodierendes Programm : mkvmerge v30.1.0 ('Forever And More') 64-bit
verwendete Encoder-Bibliothek : libebml v1.3.6 + libmatroska v1.4.9

Video
ID : 1
Format : AVC
Format/Info : Advanced Video Codec
Format-Profil : High@L4.1
Format-Einstellungen : CABAC / 4 Ref Frames
Format-Einstellungen für CABAC : Ja
Format-Einstellungen für RefFrames : 4 frames
Codec-ID : V_MPEG4/ISO/AVC
Dauer : 2 h 2 min
Bitrate : 3 781 kb/s
Breite : 1 920 Pixel
Höhe : 800 Pixel
Bildseitenverhältnis : 2,40:1
Modus der Bildwiederholungsrate : konstant
Bildwiederholungsrate : 29,970 (30000/1001) FPS
ColorSpace : YUV
ChromaSubsampling/String : 4:2:0
BitDepth/String : 8 bits
Scantyp : progressiv
Bits/(Pixel*Frame) : 0.082
Stream-Größe : 3,24 GiB (91%)
Default : Ja
Forced : Nein
colour_range : Limited
colour_primaries : BT.709
transfer_characteristics : BT.709
matrix_coefficients : BT.709

Audio
ID : 2
Format : AC-3
Format/Info : Audio Coding 3
Format_Commercial_IfAny : Dolby Digital
Codec-ID : A_AC3
Dauer : 2 h 2 min
Bitraten-Modus : konstant
Bitrate : 384 kb/s
Kanäle : 2 Kanäle
ChannelLayout : L R
Samplingrate : 48,0 kHz
Bildwiederholungsrate : 31,250 FPS (1536 SPF)
Video Verzögerung : 11 ms
Stream-Größe : 337 MiB (9%)
Sprache : Englisch
ServiceKind/String : Complete Main
Default : Ja
Forced : Nein



Aber ob sich jemand die Arbeit macht wenn in 5 Tagen itunes Kommt ist fraglich.

Seitename entfernt
1 mal bearbeitet, zuletzt 26. Mär 2020, 20:39 Uhr
0
11

Mrbones
Mrbones User 26. Mär 2020, 22:36 Uhr
Keine Bewertung des Benutzers
Bad.Boys.For.Life.2020.German.DL.LD.1080p.WEBRip.x264-PRD
0
14

Al13
Al13 User 27. Mär 2020, 05:33 Uhr
Keine Bewertung des Benutzers


ist das schon wieder pre´d und nirgends verteilt ?
0
9

xx-astrix-xx
xx-astrix-xx User 27. Mär 2020, 06:26 Uhr
Keine Bewertung des Benutzers
Finde auch nix....garantiert mal wieder nicht verteilt ....
0
8

iSky
iSky User 27. Mär 2020, 07:56 Uhr
Keine Bewertung des Benutzers
Meine Glaskugel sagt, PSO wird gleich um die Ecke kommen ;)
2
9

Poldi
Poldi User 27. Mär 2020, 10:39 Uhr
Keine Bewertung des Benutzers
Wird gepred aber wieder nicht verteilt...die sollten mal echt von allen Kisten geworfen werden...
5
4

j0nezzz
j0nezzz AFRiKA.&.P0LiSH♥|✝ 27. Mär 2020, 11:11 Uhr
Keine Bewertung des Benutzers
Sollte jetzt erhältlich sein ;)

Forced-Subs sind zuschaltbar.

MediaInfo-PRD

[Spoiler: Zum Lesen hier klicken!]
General
Unique ID : 242909234034780403951681085042320431737 (0xB6BE9DE3F49C69A8A26E7AFAEFB35A79)
Complete name : L:\Bad.Boys.For.Life.2020.German.DL.LD.1080p.WEBRip.x264-PRD\prd-bad.boys.for.life-1080p-web.mkv
Format : Matroska
Format version : Version 4 / Version 2
File size : 3.85 GiB
Duration : 2 h 2 min
Overall bit rate : 4 488 kb/s
Encoded date : UTC 2020-03-26 21:21:53
Writing application : mkvmerge v31.0.0 ('Dolores In A Shoestand') 64-bit
Writing library : libebml v1.3.6 + libmatroska v1.4.9

Video
ID : 1
Format : AVC
Format/Info : Advanced Video Codec
Format profile : High@L4.1
Format settings : CABAC / 4 Ref Frames
Format settings, CABAC : Yes
Format settings, Reference fra : 4 frames
Codec ID : V_MPEG4/ISO/AVC
Duration : 2 h 2 min
Bit rate : 3 781 kb/s
Width : 1 920 pixels
Height : 800 pixels
Display aspect ratio : 2.40:1
Frame rate mode : Constant
Frame rate : 29.970 (30000/1001) FPS
Color space : YUV
Chroma subsampling : 4:2:0
Bit depth : 8 bits
Scan type : Progressive
Bits/(Pixel*Frame) : 0.082
Stream size : 3.24 GiB (84%)
Default : Yes
Forced : No
Color range : Limited
Color primaries : BT.709
Transfer characteristics : BT.709
Matrix coefficients : BT.709

Audio #1
ID : 2
Format : AC-3
Format/Info : Audio Coding 3
Commercial name : Dolby Digital
Codec ID : A_AC3
Duration : 2 h 2 min
Bit rate mode : Constant
Bit rate : 320 kb/s
Channel(s) : 2 channels
Channel layout : L R
Sampling rate : 48.0 kHz
Frame rate : 31.250 FPS (1536 SPF)
Compression mode : Lossy
Stream size : 281 MiB (7%)
Language : German
Service kind : Complete Main
Default : Yes
Forced : No

Audio #2
ID : 3
Format : AC-3
Format/Info : Audio Coding 3
Commercial name : Dolby Digital
Codec ID : A_AC3
Duration : 2 h 2 min
Bit rate mode : Constant
Bit rate : 384 kb/s
Channel(s) : 2 channels
Channel layout : L R
Sampling rate : 48.0 kHz
Frame rate : 31.250 FPS (1536 SPF)
Compression mode : Lossy
Delay relative to video : 11 ms
Stream size : 337 MiB (9%)
Language : English
Service kind : Complete Main
Default : No
Forced : No

Text
ID : 4
Format : UTF-8
Codec ID : S_TEXT/UTF8
Codec ID/Info : UTF-8 Plain Text
Duration : 1 h 45 min
Bit rate : 3 b/s
Count of elements : 77
Stream size : 2.54 KiB (0%)
Language : German
Default : Yes
Forced : Yes

1 mal bearbeitet, zuletzt 27. Mär 2020, 11:48 Uhr
0
9

xx-astrix-xx
xx-astrix-xx User 27. Mär 2020, 11:34 Uhr
Keine Bewertung des Benutzers
Hoffe auch auf forced subs ...denn die sind nicht unwichtig..und nein bei einigen Stellen reicht normales schul Englisch nicht aus :)
2
6

Al13
Al13 User 27. Mär 2020, 12:34 Uhr
Keine Bewertung des Benutzers
j0nezzz schrieb:
Sollte jetzt erhältlich sein ;)

Forced-Subs sind zuschaltbar.

MediaInfo-PRD

[Spoiler: Zum Lesen hier klicken!]
General
Unique ID : 242909234034780403951681085042320431737 (0xB6BE9DE3F49C69A8A26E7AFAEFB35A79)
Complete name : L:\Bad.Boys.For.Life.2020.German.DL.LD.1080p.WEBRip.x264-PRD\prd-bad.boys.for.life-1080p-web.mkv
Format : Matroska
Format version : Version 4 / Version 2
File size : 3.85 GiB
Duration : 2 h 2 min
Overall bit rate : 4 488 kb/s
Encoded date : UTC 2020-03-26 21:21:53
Writing application : mkvmerge v31.0.0 ('Dolores In A Shoestand') 64-bit
Writing library : libebml v1.3.6 + libmatroska v1.4.9

Video
ID : 1
Format : AVC
Format/Info : Advanced Video Codec
Format profile : High@L4.1
Format settings : CABAC / 4 Ref Frames
Format settings, CABAC : Yes
Format settings, Reference fra : 4 frames
Codec ID : V_MPEG4/ISO/AVC
Duration : 2 h 2 min
Bit rate : 3 781 kb/s
Width : 1 920 pixels
Height : 800 pixels
Display aspect ratio : 2.40:1
Frame rate mode : Constant
Frame rate : 29.970 (30000/1001) FPS
Color space : YUV
Chroma subsampling : 4:2:0
Bit depth : 8 bits
Scan type : Progressive
Bits/(Pixel*Frame) : 0.082
Stream size : 3.24 GiB (84%)
Default : Yes
Forced : No
Color range : Limited
Color primaries : BT.709
Transfer characteristics : BT.709
Matrix coefficients : BT.709

Audio #1
ID : 2
Format : AC-3
Format/Info : Audio Coding 3
Commercial name : Dolby Digital
Codec ID : A_AC3
Duration : 2 h 2 min
Bit rate mode : Constant
Bit rate : 320 kb/s
Channel(s) : 2 channels
Channel layout : L R
Sampling rate : 48.0 kHz
Frame rate : 31.250 FPS (1536 SPF)
Compression mode : Lossy
Stream size : 281 MiB (7%)
Language : German
Service kind : Complete Main
Default : Yes
Forced : No

Audio #2
ID : 3
Format : AC-3
Format/Info : Audio Coding 3
Commercial name : Dolby Digital
Codec ID : A_AC3
Duration : 2 h 2 min
Bit rate mode : Constant
Bit rate : 384 kb/s
Channel(s) : 2 channels
Channel layout : L R
Sampling rate : 48.0 kHz
Frame rate : 31.250 FPS (1536 SPF)
Compression mode : Lossy
Delay relative to video : 11 ms
Stream size : 337 MiB (9%)
Language : English
Service kind : Complete Main
Default : No
Forced : No

Text
ID : 4
Format : UTF-8
Codec ID : S_TEXT/UTF8
Codec ID/Info : UTF-8 Plain Text
Duration : 1 h 45 min
Bit rate : 3 b/s
Count of elements : 77
Stream size : 2.54 KiB (0%)
Language : German
Default : Yes
Forced : Yes


jo is da kann ich bestätigen
0
6

 
darum User 27. Mär 2020, 13:53 Uhr
Keine Bewertung des Benutzers
Aber leider nicht mit TIVTC/Tdecimate bearbeitet weswegen es auch leicht ruckelt.

Edit: Buchstabe vergessen
1 mal bearbeitet, zuletzt 27. Mär 2020, 14:14 Uhr
0
10

j0nezzz
j0nezzz AFRiKA.&.P0LiSH♥|✝ 30. Mär 2020, 17:55 Uhr
Keine Bewertung des Benutzers
Neue Source (iTunes) wird bestimmt bald hier eingetragen.

Screens

Bad.Boys.for.Life.2020.1080p.WEB-DL.H264.AC3-EVO

[Spoiler: Zum Lesen hier klicken!]
http://www.imdb.com/title/tt1502397/

RELEASE: Bad Boys for Life.2020.1080p.WEB-DL.H264.AC3-EVO
                                           
SOURCE: iTunes :)

ViDEO: 4500 Kbps - Untouched video file

RESOLUTiON: 1920x800

RUNTiME: 2h 3m

SUBTiTLES: English when needed (.srt)

AUDiO: 384 Kbps AC3 5.1

LANGUAGE: ENGLiSH

SiZE: 4.22GB

0
6


Releasebewertung
Produktbewertung: 7,1 / 10
Gesamt: 69 Stimmen

Release-Optionen

Hast du das verstanden? Ja! | Nein!

Is that clear? Yes! | No!