xREL.v3

First.Cow.2019.1080p.AMZN.WEB-DL.DDP5.1.H.264-NTG - Kommentare

Sprache wählen
Board RSS API Hilfe Kontakt
 
Plutonium User 10. Jul 2020, 21:11 Uhr
Keine Bewertung des Benutzers
Eigentlich sollten englische Untertitel dabei sein, aber beide Untertitel sind leer oder kaputt bzw. nicht vorhanden. Sehr schade.

Text #1
ID : 3
Format : UTF-8
Codec ID : S_TEXT/UTF8
Codec ID/Info : UTF-8 Plain Text
Duration : 2 h 1 min
Bit rate : 22 b/s
Count of elements : 1
Stream size : 20.2 KiB (0%)
Language : English
Default : No
Forced : No

Text #2
ID : 4
Format : UTF-8
Codec ID : S_TEXT/UTF8
Codec ID/Info : UTF-8 Plain Text
Duration : 2 h 1 min
Bit rate : 27 b/s
Count of elements : 1
Stream size : 24.3 KiB (0%)
Title : SDH
Language : English
Default : No
Forced : No
0
2


Releasebewertung
Produktbewertung: 6,0 / 10
Gesamt: 2 Stimmen

Release-Optionen

Hast du das verstanden? Ja! | Nein!

Is that clear? Yes! | No!