xREL.v3

Network.1976.German.AC3D.DL.720p.BluRay.x264-XANOR - Kommentare

Board RSS API Hilfe Kontakt
 
AnyThinG an account has no name 19. Mär 2017, 23:21 Uhr
Keine Bewertung des Benutzers
Hm, ich wollte gerade das alte P2P-Release im Archiv durch dieses Scene-Release ersetzen.

Network.1976.German.AC3D.DL.720p.BluRay.x264-XANOR
MediaInfo:
[Spoiler: Zum Lesen hier klicken!]
General
Complete name                            : \fakepath\xan-network-720p.mkv
Format                                   : Matroska
Format version                           : Version 4 / Version 2
File size                                : 4.56 GiB
Duration                                 : 2h 1mn
Overall bit rate                         : 5 382 Kbps
Encoded date                             : UTC 2017-03-18 05:08:33
Writing application                      : mkvmerge v8.3.0 ('Over the Horizon') 64bit
Writing library                          : libebml v1.3.1 + libmatroska v1.4.2
DURATION                                 : 02:01:20.331000000
NUMBER_OF_FRAMES                         : 682530
NUMBER_OF_BYTES                          : 698910720
_STATISTICS_WRITING_APP                  : mkvmerge v8.3.0 ('Over the Horizon') 64bit
_STATISTICS_WRITING_DATE_UTC             : 2017-03-18 05:08:33
_STATISTICS_TAGS                         : BPS DURATION NUMBER_OF_FRAMES NUMBER_OF_BYTES

Video
ID                                       : 1
Format                                   : AVC
Format/Info                              : Advanced Video Codec
Format profile                           : High@L4.1
Format settings, CABAC                   : Yes
Format settings, ReFrames                : 5 frames
Codec ID                                 : V_MPEG4/ISO/AVC
Duration                                 : 2h 1mn
Bit rate                                 : 4 389 Kbps
Width                                    : 1 280 pixels
Height                                   : 720 pixels
Display aspect ratio                     : 16:9
Frame rate mode                          : Constant
Frame rate                               : 23.976 fps
Color space                              : YUV
Chroma subsampling                       : 4:2:0
Bit depth                                : 8 bits
Scan type                                : Progressive
Bits/(Pixel*Frame)                       : 0.199
Stream size                              : 3.63 GiB (80%)
Writing library                          : x264 core 113 r1884 7313bb5
Encoding settings                        : cabac=1 / ref=5 / deblock=1:0:0 / analyse=0x3:0x113 / me=umh / subme=7 / psy=1 / psy_rd=1.00:0.00 / mixed_ref=1 / me_range=16 / chroma_me=1 / trellis=1 / 8x8dct=1 / cqm=0 / deadzone=21,11 / fast_pskip=0 / chroma_qp_offset=-2 / threads=12 / sliced_threads=0 / nr=0 / decimate=1 / interlaced=0 / constrained_intra=0 / bframes=3 / b_pyramid=2 / b_adapt=1 / b_bias=0 / direct=1 / weightb=1 / open_gop=0 / weightp=2 / keyint=250 / keyint_min=23 / scenecut=40 / intra_refresh=0 / rc_lookahead=40 / rc=2pass / mbtree=1 / bitrate=4389 / ratetol=1.0 / qcomp=0.60 / qpmin=0 / qpmax=69 / qpstep=4 / cplxblur=20.0 / qblur=0.5 / ip_ratio=1.40 / aq=1:1.00
Language                                 : English
Default                                  : No
Forced                                   : No
DURATION                                 : 02:01:20.315000000
NUMBER_OF_FRAMES                         : 174553
NUMBER_OF_BYTES                          : 3992368025
_STATISTICS_WRITING_APP                  : mkvmerge v8.3.0 ('Over the Horizon') 64bit
_STATISTICS_WRITING_DATE_UTC             : 2017-03-18 05:08:33
_STATISTICS_TAGS                         : BPS DURATION NUMBER_OF_FRAMES NUMBER_OF_BYTES

Audio #1
ID                                       : 2
Format                                   : AC-3
Format/Info                              : Audio Coding 3
Mode extension                           : CM (complete main)
Format settings, Endianness              : Big
Codec ID                                 : A_AC3
Duration                                 : 2h 1mn
Bit rate mode                            : Constant
Bit rate                                 : 224 Kbps
Channel(s)                               : 2 channels
Channel positions                        : Front: L R
Sampling rate                            : 48.0 KHz
Bit depth                                : 16 bits
Compression mode                         : Lossy
Stream size                              : 194 MiB (4%)
Language                                 : German
Default                                  : Yes
Forced                                   : No

Audio #2
ID                                       : 3
Format                                   : DTS
Format/Info                              : Digital Theater Systems
Mode                                     : 16
Format settings, Endianness              : Big
Codec ID                                 : A_DTS
Duration                                 : 2h 1mn
Bit rate mode                            : Constant
Bit rate                                 : 768 Kbps
Channel(s)                               : 1 channel
Channel positions                        : Front: C
Sampling rate                            : 48.0 KHz
Bit depth                                : 24 bits
Compression mode                         : Lossy
Stream size                              : 667 MiB (14%)
Language                                 : English
Default                                  : No
Forced                                   : No

Hashes:
[Spoiler: Zum Lesen hier klicken!]
    File: xan-network-720p_track1_eng.avc
  CRC-32: ed340108
     MD5: cdcb25b4a4bfa43171d79a096fa01069
   SHA-1: a1eb53034f155f3f75cdaf69defe11519ff8dc2b
 SHA-256: cb1b035cff07533f16bbd05dcf94b97eaf3e5dfbe175e5901ef06a2ad3ad3dbe
 SHA-512: 48c7541b23a5510f16600bb968c9d703bced6a7f7e95d8d6154871847142292373fdcaaafb3c896a69fc3c1e6e4426780241bb5f119a3ffaf7b3d651e967cd96
SHA3-256: 7f5ddaa173d52596bf93ffd1f9d7b5d0bba94ddb9b1522c9deb5784ba5f178bc
SHA3-512: abe6b9522d131d3023fd1e08ef0f285b77c71eb4e86ef5e28a6dedc56b8fb84090c80bf500c45cfc34c10584b8f1eaf2185cea3fe645ce0725d80e67e8f30260

    File: xan-network-720p_track2_ger_DELAY 0ms.ac3
  CRC-32: efe9845d
     MD5: 2b76744a35a2826fe2277bb2dbca0f3a
   SHA-1: bf853d829f8c714b84d764ce076b43602a4e4bc0
 SHA-256: a099eefd89be74d400a547deb364687a35d30927c5575b147fd90211139e72c9
 SHA-512: fcc55c1d48a5c0da1ff92f5c18092ea40565ad6db2506b81fbbf23f1683f005f0fe5d39313690ef6ca8e932984ef8a5d316481b8792ed1b4e2a102309c8276b2
SHA3-256: 037f8641dbb4cff5a96ac3cd98390d92d288d4aa1c3099696607ecfbd766231b
SHA3-512: 9c51ac3b654fca02f09c188b8f08e51283d542f46fb6ceeb8a31e5cb818626713912f9798d48cf9a070dd3ee5a285d3f7f44c68a4ea1f62885958587a207e200

    File: xan-network-720p_track3_eng_DELAY 0ms.dts
  CRC-32: 72c6663e
     MD5: 051f6d02169307e07d612b24c63f8871
   SHA-1: 0a5f4f801d2fef4d102a8781a1719790f4aebfa2
 SHA-256: 89a931a5f9de9428699947f99d06e23d7cd6fc8e99f21947d208197064c255ca
 SHA-512: b1438f92006f6c718f3c28a3bf814a47fc4832829eb3026a13d7cc8c0c9c1ca8514c606950c3209158bcc733e9f60804abfedb754fa4af38a44301ef96c461b0
SHA3-256: 5070f7f5af9acbbbb784025cec0bdc3a5ec1afe30b268aa19940011531be1b7c
SHA3-512: 5616f6644aa48991806dce021f297d1230c92ce152d8dd6a51d0da29d08a3d6329ce71f384416e5c0f56b52263f97e1a3ff4347b9601ccf94fbca900fc596667

Network.1976.German.AC3D.720p.BluRay.x264-RB
MediaInfo:
[Spoiler: Zum Lesen hier klicken!]
General
Complete name                            : \fakepath\rb-network-720p.mkv
Format                                   : Matroska
Format version                           : Version 2
File size                                : 4.56 GiB
Duration                                 : 2h 1mn
Overall bit rate                         : 5 382 Kbps
Encoded date                             : UTC 2011-02-04 11:01:50
Writing application                      : mkvmerge v4.0.0 ('The Stars were mine') gebaut am Jun  6 2010 16:18:42
Writing library                          : libebml v1.0.0 + libmatroska v1.0.0

Video
ID                                       : 1
Format                                   : AVC
Format/Info                              : Advanced Video Codec
Format profile                           : High@L4.1
Format settings, CABAC                   : Yes
Format settings, ReFrames                : 5 frames
Codec ID                                 : V_MPEG4/ISO/AVC
Duration                                 : 2h 1mn
Bit rate                                 : 4 389 Kbps
Width                                    : 1 280 pixels
Height                                   : 720 pixels
Display aspect ratio                     : 16:9
Frame rate mode                          : Constant
Frame rate                               : 23.976 fps
Color space                              : YUV
Chroma subsampling                       : 4:2:0
Bit depth                                : 8 bits
Scan type                                : Progressive
Bits/(Pixel*Frame)                       : 0.199
Stream size                              : 3.63 GiB (80%)
Writing library                          : x264 core 113 r1884 7313bb5
Encoding settings                        : cabac=1 / ref=5 / deblock=1:0:0 / analyse=0x3:0x113 / me=umh / subme=7 / psy=1 / psy_rd=1.00:0.00 / mixed_ref=1 / me_range=16 / chroma_me=1 / trellis=1 / 8x8dct=1 / cqm=0 / deadzone=21,11 / fast_pskip=0 / chroma_qp_offset=-2 / threads=12 / sliced_threads=0 / nr=0 / decimate=1 / interlaced=0 / constrained_intra=0 / bframes=3 / b_pyramid=2 / b_adapt=1 / b_bias=0 / direct=1 / weightb=1 / open_gop=0 / weightp=2 / keyint=250 / keyint_min=23 / scenecut=40 / intra_refresh=0 / rc_lookahead=40 / rc=2pass / mbtree=1 / bitrate=4389 / ratetol=1.0 / qcomp=0.60 / qpmin=0 / qpmax=69 / qpstep=4 / cplxblur=20.0 / qblur=0.5 / ip_ratio=1.40 / aq=1:1.00
Language                                 : English
Default                                  : No
Forced                                   : No

Audio #1
ID                                       : 2
Format                                   : AC-3
Format/Info                              : Audio Coding 3
Mode extension                           : CM (complete main)
Format settings, Endianness              : Big
Codec ID                                 : A_AC3
Duration                                 : 2h 1mn
Bit rate mode                            : Constant
Bit rate                                 : 224 Kbps
Channel(s)                               : 2 channels
Channel positions                        : Front: L R
Sampling rate                            : 48.0 KHz
Bit depth                                : 16 bits
Compression mode                         : Lossy
Stream size                              : 194 MiB (4%)
Language                                 : German
Default                                  : Yes
Forced                                   : No

Audio #2
ID                                       : 3
Format                                   : DTS
Format/Info                              : Digital Theater Systems
Mode                                     : 16
Format settings, Endianness              : Big
Codec ID                                 : A_DTS
Duration                                 : 2h 1mn
Bit rate mode                            : Constant
Bit rate                                 : 768 Kbps
Channel(s)                               : 1 channel
Channel positions                        : Front: C
Sampling rate                            : 48.0 KHz
Bit depth                                : 24 bits
Compression mode                         : Lossy
Stream size                              : 667 MiB (14%)
Language                                 : English
Default                                  : No
Forced                                   : No

Text
ID                                       : 4
Format                                   : UTF-8
Codec ID                                 : S_TEXT/UTF8
Codec ID/Info                            : UTF-8 Plain Text
Language                                 : English
Default                                  : No
Forced                                   : No

Hashes:
[Spoiler: Zum Lesen hier klicken!]
    File: rb-network-720p_track1_eng.avc
  CRC-32: ed340108
     MD5: cdcb25b4a4bfa43171d79a096fa01069
   SHA-1: a1eb53034f155f3f75cdaf69defe11519ff8dc2b
 SHA-256: cb1b035cff07533f16bbd05dcf94b97eaf3e5dfbe175e5901ef06a2ad3ad3dbe
 SHA-512: 48c7541b23a5510f16600bb968c9d703bced6a7f7e95d8d6154871847142292373fdcaaafb3c896a69fc3c1e6e4426780241bb5f119a3ffaf7b3d651e967cd96
SHA3-256: 7f5ddaa173d52596bf93ffd1f9d7b5d0bba94ddb9b1522c9deb5784ba5f178bc
SHA3-512: abe6b9522d131d3023fd1e08ef0f285b77c71eb4e86ef5e28a6dedc56b8fb84090c80bf500c45cfc34c10584b8f1eaf2185cea3fe645ce0725d80e67e8f30260

    File: rb-network-720p_track2_ger_DELAY 0ms.ac3
  CRC-32: efe9845d
     MD5: 2b76744a35a2826fe2277bb2dbca0f3a
   SHA-1: bf853d829f8c714b84d764ce076b43602a4e4bc0
 SHA-256: a099eefd89be74d400a547deb364687a35d30927c5575b147fd90211139e72c9
 SHA-512: fcc55c1d48a5c0da1ff92f5c18092ea40565ad6db2506b81fbbf23f1683f005f0fe5d39313690ef6ca8e932984ef8a5d316481b8792ed1b4e2a102309c8276b2
SHA3-256: 037f8641dbb4cff5a96ac3cd98390d92d288d4aa1c3099696607ecfbd766231b
SHA3-512: 9c51ac3b654fca02f09c188b8f08e51283d542f46fb6ceeb8a31e5cb818626713912f9798d48cf9a070dd3ee5a285d3f7f44c68a4ea1f62885958587a207e200

    File: rb-network-720p_track3_eng_DELAY 0ms.dts
  CRC-32: 72c6663e
     MD5: 051f6d02169307e07d612b24c63f8871
   SHA-1: 0a5f4f801d2fef4d102a8781a1719790f4aebfa2
 SHA-256: 89a931a5f9de9428699947f99d06e23d7cd6fc8e99f21947d208197064c255ca
 SHA-512: b1438f92006f6c718f3c28a3bf814a47fc4832829eb3026a13d7cc8c0c9c1ca8514c606950c3209158bcc733e9f60804abfedb754fa4af38a44301ef96c461b0
SHA3-256: 5070f7f5af9acbbbb784025cec0bdc3a5ec1afe30b268aa19940011531be1b7c
SHA3-512: 5616f6644aa48991806dce021f297d1230c92ce152d8dd6a51d0da29d08a3d6329ce71f384416e5c0f56b52263f97e1a3ff4347b9601ccf94fbca900fc596667

    File: rb-network-720p_track4_eng.srt
  CRC-32: 3ff37906
     MD5: d378105bec6ee3dfefa8350434958873
   SHA-1: 468c271e422c98f89d2cdf2bbe889ad37c0b6f9b
 SHA-256: 6674cb63bb2fa99ffe2938a5271f190cff5e7350792e75ce299c5d9eea6f3b37
 SHA-512: 33675cb3a48468c172bbab95edfceb2cd008760f9608a829dd22b8d6ec028c788bd491fc894f51a3407a8f714fd5c001dd0e55bf527a0b54ca8bcf1d2fda8fe2
SHA3-256: 6f624f95e1258642c4988fd2c399dbcd2718585f1fc3e89f123172765b6a014f
SHA3-512: ba04c7aeeb8118925b8d1c6662a718b5b54b0dff33a89c7775b61dbf8fd2448da790cfc8b9ad7a37ae704850f48e9981a8131743d71645261d0e75b86f0a7d42

Großes Kino, Jungs :-/
0
17

grindler23
grindler23 User 20. Mär 2017, 07:13 Uhr
Keine Bewertung des Benutzers
Is doch bei Xanor schon immer so gewesen... Deswegen haben die auch nie Proofpics dabei.

Damals ham se ihr Zeug noch als iNTERNAL releast, damit es keiner nuken kann. Jetzt machen die sich noch nichtmal mehr dafür die Mühe... Sowas ist mehr als lächerlich...

Das die überhaupt noch releasen ist schon bitter...
0
6


Releasebewertung
Produktbewertung: 6,3 / 10
Gesamt: 7 Stimmen

Release-Optionen

Release-Info
Zeit:
18. Mär 2017, 06:21 Uhr
Release-Group:
Release-Größe:
4671 MB
Nuked:
Nein
Repack oder Proper:
Nein
Read NFO:
Nein
NFO-Größe:
0,36 KB
Video-Stream:
Blu-ray
Audio-Stream:
AC3-Dubbed
Kategorien:

© 2004-2017 by xrelease. Alle Rechte vorbehalten. [version 3.4-0651e4136059619b2a7551239d287ccd34a1f1d5 (20171104-606)]
Systemanforderungen: JavaScript, Cookies, min. 1024x768, IE 9 / Firefox / Opera 9 / Chrome / Safari
Besucher online: 531
Mitglieder online: 50
P2P-Releases
Entertainment
Nach Oben

Hast du das verstanden? Ja! | Nein!

Is that clear? Yes! | No!